FEED Charli XCX - Boys(Etam Live Show,Paris,Sept 26,2017)([email protected])-HDMania

Discussion in 'HD Live Performances' started by art-v-k, Sep 26, 2017.

  1. art-v-k

    art-v-k Well-Known Member Capper

    Joined:
    Nov 1, 2013
    Messages:
    273
    Likes Received:
    12,109
    Charli XCX - Boys(Etam Live Show,Paris,Sept 26,2017)([email protected])-HDMania

    [​IMG] [​IMG] [​IMG] [​IMG] [​IMG] [​IMG]

    Format : MPEG-TS
    File size : 415 MiB
    Duration : 2 min 50 s
    Overall bit rate mode : Variable
    Overall bit rate : 20.4 Mb/s

    Video
    ID : 512 (0x200)
    Menu ID : 1 (0x1)
    Format : AVC
    Format/Info : Advanced Video Codec
    Format profile : [email protected]
    Format settings, CABAC : Yes
    Format settings, RefFrames : 3 frames
    Codec ID : 27
    Duration : 2 min 49 s
    Bit rate mode : Constant
    Bit rate : 19.6 Mb/s
    Width : 1 920 pixels
    Height : 1 080 pixels
    Display aspect ratio : 16:9
    Frame rate : 25.000 FPS
    Color space : YUV
    Chroma subsampling : 4:2:0
    Bit depth : 8 bits
    Scan type : MBAFF
    Scan type, store method : Separated fields
    Scan order : Top Field First
    Bits/(Pixel*Frame) : 0.379
    Stream size : 384 MiB (92%)
    Color range : Limited
    Color primaries : BT.709
    Transfer characteristics : BT.709
    Matrix coefficients : BT.709

    Audio
    ID : 4112 (0x1010)
    Menu ID : 1 (0x1)
    Format : MPEG Audio
    Format version : Version 1
    Format profile : Layer 2
    Codec ID : 3
    Duration : 2 min 50 s
    Bit rate mode : Constant
    Bit rate : 384 kb/s
    Channel(s) : 2 channels
    Sampling rate : 48.0 kHz
    Compression mode : Lossy
    Delay relative to video : -152 ms
    Stream size : 7.82 MiB (2%)
    Language : French
    ~~~~~~~~~~~~~~~~~~~
    Hidden Content:
    You must either reply or click 'Like' to see the hidden information contained here.
     
    rkn9, lucasszcn, yhkim and 22 others like this.
  2. Loading...


  3. edgar

    edgar Well-Known Member V . I . P.

    Joined:
    Oct 12, 2013
    Messages:
    1,800
    Likes Received:
    1,781
    Thank you very much :love::love::love::love:
     
  4. detroit1

    detroit1 Well-Known Member

    Joined:
    Jan 6, 2014
    Messages:
    2,659
    Likes Received:
    346
    thank you
     
  5. rhea

    rhea Well-Known Member

    Joined:
    Jan 6, 2014
    Messages:
    7,111
    Likes Received:
    788
    thanks :)
     
  6. sideshow_bob

    sideshow_bob Well-Known Member

    Joined:
    Dec 20, 2013
    Messages:
    3,058
    Likes Received:
    194
  7. azamusic

    azamusic Active Member Capper

    Joined:
    Dec 6, 2013
    Messages:
    703
    Likes Received:
    198
    thank you
     
  8. exterminador

    exterminador Well-Known Member

    Joined:
    Jul 3, 2016
    Messages:
    1,858
    Likes Received:
    171
  9. franklele

    franklele Well-Known Member

    Joined:
    Nov 11, 2013
    Messages:
    2,205
    Likes Received:
    130
    thank you very much
     
  10. teflabyte

    teflabyte Member

    Joined:
    Aug 5, 2017
    Messages:
    521
    Likes Received:
    18
    Thank you!
     
  11. DEADLYCYNS

    DEADLYCYNS Member

    Joined:
    Feb 2, 2017
    Messages:
    372
    Likes Received:
    19
  12. Eddie Solo

    Eddie Solo Member

    Joined:
    Oct 16, 2013
    Messages:
    412
    Likes Received:
    18
    Thank You
     
  13. CELOBRAZiL

    CELOBRAZiL Well-Known Member Capper V . I . P. Donor

    Joined:
    Oct 2, 2013
    Messages:
    4,248
    Likes Received:
    13,370
    Thank you so much! :)
     
  14. fisherTW

    fisherTW Well-Known Member

    Joined:
    Dec 3, 2014
    Messages:
    1,709
    Likes Received:
    184
    Thank you.:)
     
  15. Darkangel

    Darkangel Taylor Fan Staff Member Super Moderator Capper V . I . P.

    Joined:
    Oct 7, 2013
    Messages:
    2,500
    Likes Received:
    21,841
    Thank you! :)
     
  16. xiao_yu_1019

    xiao_yu_1019 Active Member

    Joined:
    Jan 1, 2015
    Messages:
    502
    Likes Received:
    40
    THX a lot
     
  17. ManuelLopez5

    ManuelLopez5 Member

    Joined:
    Jun 7, 2014
    Messages:
    480
    Likes Received:
    15
    thank you :p
     
  18. Maura

    Maura Well-Known Member

    Joined:
    Apr 7, 2014
    Messages:
    2,660
    Likes Received:
    83
    thanks
     
  19. Pavulon

    Pavulon Well-Known Member

    Joined:
    Mar 22, 2016
    Messages:
    3,808
    Likes Received:
    490
    thank you
     
  20. toonbbv

    toonbbv Well-Known Member

    Joined:
    Dec 11, 2013
    Messages:
    1,690
    Likes Received:
    81
    thank you
     
  21. alexbl182

    alexbl182 Member

    Joined:
    May 26, 2015
    Messages:
    178
    Likes Received:
    10