MASTER Charli XCX - Boom Clap (1080p)

Discussion in 'MASTER & MASTER RIP' started by vitalya3, Dec 8, 2019.

  1. vitalya3

    vitalya3 Well-Known Member

    Joined:
    Dec 4, 2017
    Messages:
    1,769
    Likes Received:
    2,152
    [​IMG]

    Code:
    General
    Complete name                  : D:\клипы 4\Charli XCX - Boom Clap.mov
    Format                         : MPEG-4
    Format profile                 : QuickTime
    Codec ID                       : qt   0000.00 (qt  )
    File size                      : 207 MiB
    Duration                       : 2 min 55 s
    Overall bit rate mode          : Variable
    Overall bit rate               : 9 866 kb/s
    Encoded date                   : UTC 2014-06-10 09:42:04
    Tagged date                    : UTC 2014-06-10 09:44:54
    Writing application            : Mac OS X v10.7.5 (CMA 891, CM 705.94, x86_64)
    Writing library                : Apple QuickTime
    TSZ                            : 1
    TSC                            : 25
    TIM                            : 00:00:00:00
    
    Video
    ID                             : 2
    Format                         : AVC
    Format/Info                    : Advanced Video Codec
    Format profile                 : High@L4
    Format settings                : 2 Ref Frames
    Format settings, CABAC         : No
    Format settings, ReFrames      : 2 frames
    Codec ID                       : avc1
    Codec ID/Info                  : Advanced Video Coding
    Duration                       : 2 min 55 s
    Source duration                : 2 min 55 s
    Source_Duration_FirstFrame     : -7 ms
    Bit rate mode                  : Variable
    Bit rate                       : 9 603 kb/s
    Maximum bit rate               : 12.7 Mb/s
    Width                          : 1 920 pixels
    Height                         : 1 080 pixels
    Display aspect ratio           : 16:9
    Frame rate mode                : Constant
    Frame rate                     : 25.000 FPS
    Color space                    : YUV
    Chroma subsampling             : 4:2:0
    Bit depth                      : 8 bits
    Scan type                      : Progressive
    Bits/(Pixel*Frame)             : 0.185
    Stream size                    : 201 MiB (97%)
    Source stream size             : 201 MiB (97%)
    Title                          : Core Media Video
    Language                       : English
    Encoded date                   : UTC 2014-06-10 09:42:04
    Tagged date                    : UTC 2014-06-10 09:44:54
    Color range                    : Limited
    Color primaries                : BT.709
    Transfer characteristics       : BT.709
    Matrix coefficients            : BT.709
    Codec configuration box        : avcC
    
    Audio
    ID                             : 1
    Format                         : AAC LC
    Format/Info                    : Advanced Audio Codec Low Complexity
    Codec ID                       : mp4a-40-2
    Duration                       : 2 min 55 s
    Source duration                : 2 min 55 s
    Bit rate mode                  : Constant
    Bit rate                       : 256 kb/s
    Channel(s)                     : 2 channels
    Channel layout                 : L R
    Sampling rate                  : 44.1 kHz
    Frame rate                     : 43.066 FPS (1024 SPF)
    Compression mode               : Lossy
    Stream size                    : 5.23 MiB (3%)
    Source stream size             : 5.23 MiB (3%)
    Title                          : Core Media Audio
    Language                       : English
    Encoded date                   : UTC 2014-06-10 09:42:04
    Tagged date                    : UTC 2014-06-10 09:44:54
    
    
    Hidden Content:
    You must either reply or click 'Like' to see the hidden information contained here.
     
    ojotv, jnhh, ianarturis and 7 others like this.
  2. Loading...


  3. nolynexor88

    nolynexor88 nolynexor88

    Joined:
    Sep 29, 2015
    Messages:
    2,064
    Likes Received:
    203
  4. nino.navy

    nino.navy Well-Known Member

    Joined:
    May 30, 2014
    Messages:
    4,570
    Likes Received:
    383
    thanks a lot
     
  5. kalo

    kalo Active Member

    Joined:
    May 25, 2015
    Messages:
    986
    Likes Received:
    49
    thank you
     
  6. tn5656

    tn5656 Well-Known Member

    Joined:
    Jan 20, 2017
    Messages:
    8,384
    Likes Received:
    595
    Thanks a lot !!!
     
  7. yanjamacaru

    yanjamacaru Well-Known Member

    Joined:
    Dec 21, 2018
    Messages:
    2,750
    Likes Received:
    101
    thanks
     
  8. Eddie Solo

    Eddie Solo Active Member

    Joined:
    Oct 16, 2013
    Messages:
    976
    Likes Received:
    52
    THANK YOU
     
  9. bigray72

    bigray72 Active Member

    Joined:
    Jun 30, 2018
    Messages:
    765
    Likes Received:
    86
    thanks
     
  10. Fad

    Fad Well-Known Member

    Joined:
    Aug 22, 2018
    Messages:
    986
    Likes Received:
    354
    Это видео так даже для youtube никто не обрезал. Что ты залил на форум?
     
  11. Danielcha

    Danielcha Active Member

    Joined:
    Sep 20, 2014
    Messages:
    849
    Likes Received:
    78
    MUITO OBRIGADO
     
  12. sekoman

    sekoman Member

    Joined:
    Aug 24, 2017
    Messages:
    905
    Likes Received:
    9
    Thanks.
     
  13. omar1564

    omar1564 Slim Shady

    Joined:
    Oct 28, 2019
    Messages:
    934
    Likes Received:
    38
    thanks
     
  14. Rihan Star

    Rihan Star Active Member

    Joined:
    Apr 17, 2019
    Messages:
    746
    Likes Received:
    43
    thank you
     
  15. dohair

    dohair Member

    Joined:
    Aug 13, 2019
    Messages:
    56
    Likes Received:
    1
    Active Member
     
  16. Biel wicthoff

    Biel wicthoff Active Member

    Joined:
    Nov 7, 2016
    Messages:
    697
    Likes Received:
    25
  17. axkvf

    axkvf Member

    Joined:
    Jun 4, 2017
    Messages:
    249
    Likes Received:
    14
    thnks
     
  18. WDRB_GSZMZ

    WDRB_GSZMZ Well-Known Member

    Joined:
    Mar 23, 2018
    Messages:
    680
    Likes Received:
    284
    tnxxxxxxxxxxxxxxxxxxxx
     
  19. TheRealAlex

    TheRealAlex Member

    Joined:
    May 15, 2020
    Messages:
    413
    Likes Received:
    10
  20. Lordbr666

    Lordbr666 Well-Known Member

    Joined:
    May 24, 2020
    Messages:
    2,134
    Likes Received:
    183
    Thank You!
     
  21. QQaluo

    QQaluo Active Member

    Joined:
    Jun 12, 2020
    Messages:
    722
    Likes Received:
    78
    Bbabsnsnnsnsdd