BDRiP Celine Dion - Une Seule Fois / Live 2013 (Bluray rip 1080p)

Discussion in 'BLU-RAY' started by DETOX, Jun 2, 2016.

  1. DETOX

    DETOX My first love broke my heart for the first time ♫ V . I . P. Uploader

    Joined:
    Feb 20, 2014
    Messages:
    4,445
    Likes Received:
    35,953
    http://sharemania.us/threads/celine-dion-une-seule-fois-live-2013-bdrip-1080p.27959/

    [​IMG]

    SETLIST
    01. "Ce n'etait qu'un reve" T. Dion / C. Dion / J. Dion
    02. "Dans un autre monde" Goldman
    03. "Parler a mon pere" Veneruso
    04. "It's All Coming Back to Me Now/The Power of Love" (Medley) Steinman / Mende / DeRouge / Rush / Applegate
    05. "On ne change pas" Goldman
    06. "Destin" Goldman
    07. "Qui peut vivre sans amour ?" Hesme / Gategno
    08. "Je crois toi" Goldman
    09. "La mer et l'enfant" Malade / Gategno
    10. "Celle qui m'a tout appris" Bouraoui / Veneruso
    11. "Terre" Benzi
    12. "J'irai ou tu iras" (duet with Jean-Marc Couture) Goldman
    13. "Bozo" Leclerc
    14. "Je n'ai pas besoin d'amour" Ferland / Mercure
    15. "S'il suffisait d'aimer" Goldman
    16. "L'amour existe encore" Plamondon / Cocciante
    17. "All by Myself" Carmen / Rachmaninoff
    18. "Je sais pas" Goldman / Kapler
    19. "Je danse dans ma tete/Des mots qui sonnent/Incognito" (Medley) Plamondon / Musumarra / Nova / Simon / Roussel
    20. "Love Can Move Mountains/River Deep, Mountain High" (Medley) Warren / Greenwich / Barry / Spector
    21. "My Heart Will Go On" Horner / Jennings
    22. "Pour que tu m'aimes encore" Goldman
    23. "Loved Me Back to Life" Hussain / Motes / Furler
    24. "Le miracle" Bastide / Maurici


    Code:
    General
    Unique ID                                : 211996302947729509563096010839587845650 (0x9F7D00B726501F4A8E40524B8A447612)
    Complete name                            : Celine Dion - Une Seule Fois Live (Bluray rip 1080p).mkv
    Format                                   : Matroska
    Format version                           : Version 4 / Version 2
    File size                                : 7.65 GiB
    Duration                                 : 1h 53mn
    Overall bit rate                         : 9 631 Kbps
    Encoded date                             : UTC 2014-05-17 09:21:07
    Writing application                      : mkvmerge v6.8.0 ('Theme for Great Cities') 64bit built on Mar  2 2014 21:34:26
    Writing library                          : libebml v1.3.0 + libmatroska v1.4.1
    
    Video
    ID                                       : 1
    Format                                   : AVC
    Format/Info                              : Advanced Video Codec
    Format profile                           : High@L4.1
    Format settings, CABAC                   : Yes
    Format settings, ReFrames                : 4 frames
    Codec ID                                 : V_MPEG4/ISO/AVC
    Duration                                 : 1h 53mn
    Bit rate                                 : 8 993 Kbps
    Width                                    : 1 920 pixels
    Height                                   : 1 080 pixels
    Display aspect ratio                     : 16:9
    Frame rate mode                          : Constant
    Frame rate                               : 23.976 fps
    Color space                              : YUV
    Chroma subsampling                       : 4:2:0
    Bit depth                                : 8 bits
    Scan type                                : Progressive
    Bits/(Pixel*Frame)                       : 0.181
    Stream size                              : 6.99 GiB (91%)
    Writing library                          : x264 core 142 r2431 ac76440
    Encoding settings                        : cabac=1 / ref=4 / deblock=1:0:0 / analyse=0x3:0x133 / me=umh / subme=8 / psy=1 / psy_rd=1.00:0.00 / mixed_ref=1 / me_range=16 / chroma_me=1 / trellis=1 / 8x8dct=1 / cqm=0 / deadzone=21,11 / fast_pskip=0 / chroma_qp_offset=-2 / threads=12 / lookahead_threads=2 / sliced_threads=0 / nr=0 / decimate=1 / interlaced=0 / bluray_compat=0 / constrained_intra=0 / bframes=3 / b_pyramid=2 / b_adapt=1 / b_bias=0 / direct=1 / weightb=1 / open_gop=0 / weightp=2 / keyint=250 / keyint_min=23 / scenecut=40 / intra_refresh=0 / rc_lookahead=40 / rc=2pass / mbtree=1 / bitrate=8993 / ratetol=1.0 / qcomp=0.60 / qpmin=0 / qpmax=69 / qpstep=4 / cplxblur=20.0 / qblur=0.5 / ip_ratio=1.40 / aq=1:1.00
    Language                                 : English
    Default                                  : Yes
    Forced                                   : No
    
    Audio
    ID                                       : 2
    Format                                   : AC-3
    Format/Info                              : Audio Coding 3
    Mode extension                           : CM (complete main)
    Format settings, Endianness              : Big
    Codec ID                                 : A_AC3
    Duration                                 : 1h 53mn
    Bit rate mode                            : Constant
    Bit rate                                 : 640 Kbps
    Channel(s)                               : 6 channels
    Channel positions                        : Front: L C R, Side: L R, LFE
    Sampling rate                            : 48.0 KHz
    Bit depth                                : 16 bits
    Compression mode                         : Lossy
    Stream size                              : 521 MiB (7%)
    Default                                  : Yes
    Forced                                   : No
    
    Menu
    00:00:00.000                             : en:00:00:00.000
    00:01:37.848                             : en:00:01:37.848
    00:05:45.554                             : en:00:05:45.554
    00:08:45.859                             : en:00:08:45.859
    00:18:12.675                             : en:00:18:12.675
    00:22:39.024                             : en:00:22:39.024
    00:25:57.639                             : en:00:25:57.639
    00:29:25.514                             : en:00:29:25.514
    00:34:19.099                             : en:00:34:19.099
    00:38:12.373                             : en:00:38:12.373
    00:42:05.982                             : en:00:42:05.982
    00:46:11.894                             : en:00:46:11.894
    00:49:53.240                             : en:00:49:53.240
    00:52:57.674                             : en:00:52:57.674
    00:56:53.785                             : en:00:56:53.785
    01:01:30.103                             : en:01:01:30.103
    01:05:47.652                             : en:01:05:47.652
    01:10:41.612                             : en:01:10:41.612
    01:16:44.391                             : en:01:16:44.391
    01:25:05.684                             : en:01:25:05.684
    01:31:12.634                             : en:01:31:12.634
    01:37:45.526                             : en:01:37:45.526
    01:43:00.424                             : en:01:43:00.424
    01:47:50.005                             : en:01:47:50.005
    Server: cloud.mai.ru
    Hidden Content:
    You must reply before you can see the hidden data contained here.
     
    bjellerud, dodo, zepastel and 3 others like this.
  2. Loading...


  3. Snorom6

    Snorom6 Well-Known Member V . I . P. Uploader

    Joined:
    Dec 17, 2015
    Messages:
    4,248
    Likes Received:
    5,622
  4. Jascka

    Jascka Active Member

    Joined:
    Nov 9, 2015
    Messages:
    613
    Likes Received:
    101
    Thanks a lot! Downloading right now!!!:love:
     
  5. BNJFEV

    BNJFEV Member

    Joined:
    Dec 14, 2013
    Messages:
    332
    Likes Received:
    7
    thanks so much
     
  6. Benson Chen

    Benson Chen New Member

    Joined:
    May 31, 2015
    Messages:
    26
    Likes Received:
    1
    Thanks So Much.
     
  7. ElGuaje

    ElGuaje New Member

    Joined:
    Jul 19, 2016
    Messages:
    1
    Likes Received:
    0
    Thanks bro
     
  8. yecid06

    yecid06 New Member

    Joined:
    Jul 29, 2016
    Messages:
    1
    Likes Received:
    0
     
  9. angelm

    angelm Member

    Joined:
    Aug 5, 2016
    Messages:
    169
    Likes Received:
    6
    great
     
  10. j.al alvarez venegas

    j.al alvarez venegas Member

    Joined:
    Sep 25, 2016
    Messages:
    104
    Likes Received:
    11
  11. israelfortal

    israelfortal New Member

    Joined:
    Oct 31, 2016
    Messages:
    1
    Likes Received:
    0
    Israel celine dion

    SETLIST
    01. "Ce n'etait qu'un reve" T. Dion / C. Dion / J. Dion
    02. "Dans un autre monde" Goldman
    03. "Parler a mon pere" Veneruso
    04. "It's All Coming Back to Me Now/The Power of Love" (Medley) Steinman / Mende / DeRouge / Rush / Applegate
    05. "On ne change pas" Goldman
    06. "Destin" Goldman
    07. "Qui peut vivre sans amour ?" Hesme / Gategno
    08. "Je crois toi" Goldman
    09. "La mer et l'enfant" Malade / Gategno
    10. "Celle qui m'a tout appris" Bouraoui / Veneruso
    11. "Terre" Benzi
    12. "J'irai ou tu iras" (duet with Jean-Marc Couture) Goldman
    13. "Bozo" Leclerc
    14. "Je n'ai pas besoin d'amour" Ferland / Mercure
    15. "S'il suffisait d'aimer" Goldman
    16. "L'amour existe encore" Plamondon / Cocciante
    17. "All by Myself" Carmen / Rachmaninoff
    18. "Je sais pas" Goldman / Kapler
    19. "Je danse dans ma tete/Des mots qui sonnent/Incognito" (Medley) Plamondon / Musumarra / Nova / Simon / Roussel
    20. "Love Can Move Mountains/River Deep, Mountain High" (Medley) Warren / Greenwich / Barry / Spector
    21. "My Heart Will Go On" Horner / Jennings
    22. "Pour que tu m'aimes encore" Goldman
    23. "Loved Me Back to Life" Hussain / Motes / Furler
    24. "Le miracle" Bastide / Maurici


    Code:
    General
    Unique ID                                : 211996302947729509563096010839587845650 (0x9F7D00B726501F4A8E40524B8A447612)
    Complete name                            : Celine Dion - Une Seule Fois Live (Bluray rip 1080p).mkv
    Format                                   : Matroska
    Format version                           : Version 4 / Version 2
    File size                                : 7.65 GiB
    Duration                                 : 1h 53mn
    Overall bit rate                         : 9 631 Kbps
    Encoded date                             : UTC 2014-05-17 09:21:07
    Writing application                      : mkvmerge v6.8.0 ('Theme for Great Cities') 64bit built on Mar  2 2014 21:34:26
    Writing library                          : libebml v1.3.0 + libmatroska v1.4.1
    
    Video
    ID                                       : 1
    Format                                   : AVC
    Format/Info                              : Advanced Video Codec
    Format profile                           : High@L4.1
    Format settings, CABAC                   : Yes
    Format settings, ReFrames                : 4 frames
    Codec ID                                 : V_MPEG4/ISO/AVC
    Duration                                 : 1h 53mn
    Bit rate                                 : 8 993 Kbps
    Width                                    : 1 920 pixels
    Height                                   : 1 080 pixels
    Display aspect ratio                     : 16:9
    Frame rate mode                          : Constant
    Frame rate                               : 23.976 fps
    Color space                              : YUV
    Chroma subsampling                       : 4:2:0
    Bit depth                                : 8 bits
    Scan type                                : Progressive
    Bits/(Pixel*Frame)                       : 0.181
    Stream size                              : 6.99 GiB (91%)
    Writing library                          : x264 core 142 r2431 ac76440
    Encoding settings                        : cabac=1 / ref=4 / deblock=1:0:0 / analyse=0x3:0x133 / me=umh / subme=8 / psy=1 / psy_rd=1.00:0.00 / mixed_ref=1 / me_range=16 / chroma_me=1 / trellis=1 / 8x8dct=1 / cqm=0 / deadzone=21,11 / fast_pskip=0 / chroma_qp_offset=-2 / threads=12 / lookahead_threads=2 / sliced_threads=0 / nr=0 / decimate=1 / interlaced=0 / bluray_compat=0 / constrained_intra=0 / bframes=3 / b_pyramid=2 / b_adapt=1 / b_bias=0 / direct=1 / weightb=1 / open_gop=0 / weightp=2 / keyint=250 / keyint_min=23 / scenecut=40 / intra_refresh=0 / rc_lookahead=40 / rc=2pass / mbtree=1 / bitrate=8993 / ratetol=1.0 / qcomp=0.60 / qpmin=0 / qpmax=69 / qpstep=4 / cplxblur=20.0 / qblur=0.5 / ip_ratio=1.40 / aq=1:1.00
    Language                                 : English
    Default                                  : Yes
    Forced                                   : No
    
    Audio
    ID                                       : 2
    Format                                   : AC-3
    Format/Info                              : Audio Coding 3
    Mode extension                           : CM (complete main)
    Format settings, Endianness              : Big
    Codec ID                                 : A_AC3
    Duration                                 : 1h 53mn
    Bit rate mode                            : Constant
    Bit rate                                 : 640 Kbps
    Channel(s)                               : 6 channels
    Channel positions                        : Front: L C R, Side: L R, LFE
    Sampling rate                            : 48.0 KHz
    Bit depth                                : 16 bits
    Compression mode                         : Lossy
    Stream size                              : 521 MiB (7%)
    Default                                  : Yes
    Forced                                   : No
    
    Menu
    00:00:00.000                             : en:00:00:00.000
    00:01:37.848                             : en:00:01:37.848
    00:05:45.554                             : en:00:05:45.554
    00:08:45.859                             : en:00:08:45.859
    00:18:12.675                             : en:00:18:12.675
    00:22:39.024                             : en:00:22:39.024
    00:25:57.639                             : en:00:25:57.639
    00:29:25.514                             : en:00:29:25.514
    00:34:19.099                             : en:00:34:19.099
    00:38:12.373                             : en:00:38:12.373
    00:42:05.982                             : en:00:42:05.982
    00:46:11.894                             : en:00:46:11.894
    00:49:53.240                             : en:00:49:53.240
    00:52:57.674                             : en:00:52:57.674
    00:56:53.785                             : en:00:56:53.785
    01:01:30.103                             : en:01:01:30.103
    01:05:47.652                             : en:01:05:47.652
    01:10:41.612                             : en:01:10:41.612
    01:16:44.391                             : en:01:16:44.391
    01:25:05.684                             : en:01:25:05.684
    01:31:12.634                             : en:01:31:12.634
    01:37:45.526                             : en:01:37:45.526
    01:43:00.424                             : en:01:43:00.424
    01:47:50.005                             : en:01:47:50.005
    Server: cloud.mai.ru
    ***Hidden content cannot be quoted.***
    [/QUOTE]
     
  12. korani

    korani Member

    Joined:
    Nov 27, 2016
    Messages:
    271
    Likes Received:
    5
    Thanks So Much.
     
  13. madge95

    madge95 Member

    Joined:
    Dec 11, 2016
    Messages:
    35
    Likes Received:
    3
    Thank you!
     
  14. mbu2007

    mbu2007 New Member

    Joined:
    Dec 21, 2016
    Messages:
    1
    Likes Received:
    0


    Merci beaucoup...

     
  15. Extazy4u2

    Extazy4u2 Well-Known Member

    Joined:
    Jan 26, 2017
    Messages:
    2,242
    Likes Received:
    241
  16. gahz0r

    gahz0r Member

    Joined:
    Feb 18, 2017
    Messages:
    28
    Likes Received:
    6
    th
    anks!
     
  17. sonyfan01

    sonyfan01 New Member

    Joined:
    Aug 23, 2016
    Messages:
    2
    Likes Received:
    0
  18. shinobi780

    shinobi780 New Member

    Joined:
    Apr 18, 2017
    Messages:
    4
    Likes Received:
    1
    many thanks
     
    zepastel likes this.
  19. junior.ca

    junior.ca Well-Known Member

    Joined:
    Jun 1, 2014
    Messages:
    1,244
    Likes Received:
    61
    obrigado
     
  20. JPGAmbrosino

    JPGAmbrosino Member

    Joined:
    Jul 30, 2016
    Messages:
    538
    Likes Received:
    24
    Txs a ñot lottttt
     
  21. Manoel123

    Manoel123 Member

    Joined:
    Sep 5, 2016
    Messages:
    54
    Likes Received:
    16
    gracias

     
    bjellerud likes this.