Celine Dion - My Heart Will Go On (MTV IDOL HD-1080i-DD2.0-Olgold)

Discussion in 'MTV IDOL' started by DETOX, Feb 24, 2015.

  1. DETOX

    DETOX ALL I WANT FOR CHRISTMAS ISSS YOOOOUUUUU, BABY! ♫ V . I . P. Uploader

    Joined:
    Feb 20, 2014
    Messages:
    5,191
    Likes Received:
    47,227

    Celine Dion - My Heart Will Go On (MTV IDOL HD-1080i-DD2.0-Olgold)
    [​IMG]

    General
    ID : 16 (0x10)
    Complete name : Celine Dion - My Heart Will Go On (MTV IDOL HD-1080i-DD2.0-Olgold).ts
    Format : MPEG-TS
    File size : 159 MiB
    Duration : 4mn 35s
    Overall bit rate mode : Variable
    Overall bit rate : 4 834 Kbps

    Video
    ID : 310 (0x136)
    Menu ID : 8003 (0x1F43)
    Format : AVC
    Format/Info : Advanced Video Codec
    Format profile : High@L4.0
    Format settings, CABAC : Yes
    Format settings, ReFrames : 4 frames
    Format settings, GOP : M=8, N=24
    Codec ID : 27
    Duration : 4mn 35s
    Bit rate : 4 337 Kbps
    Width : 1 920 pixels
    Height : 1 080 pixels
    Display aspect ratio : 16:9
    Frame rate : 25.000 fps
    Standard : Component
    Color space : YUV
    Chroma subsampling : 4:2:0
    Bit depth : 8 bits
    Scan type : MBAFF
    Scan order : Top Field First
    Bits/(Pixel*Frame) : 0.084
    Stream size : 143 MiB (90%)
    Color primaries : BT.709
    Transfer characteristics : BT.709
    Matrix coefficients : BT.709
    Color range : Limited

    Audio
    ID : 321 (0x141)
    Menu ID : 8003 (0x1F43)
    Format : AC-3
    Format/Info : Audio Coding 3
    Mode extension : CM (complete main)
    Format settings, Endianness : Big
    Codec ID : 6
    Duration : 4mn 35s
    Bit rate mode : Constant
    Bit rate : 256 Kbps
    Channel(s) : 2 channels
    Channel positions : Front: L R
    Sampling rate : 48.0 KHz
    Bit depth : 16 bits
    Compression mode : Lossy
    Delay relative to video : 32ms
    Stream size : 8.42 MiB (5%)
    Language : French
    Language, more info : Clean effects

    Credits to Olgold

    SERVER: MEGA / PASSWORD: DETOX
    Hidden Content:
    You must reply before you can see the hidden data contained here.
     
    Last edited: Mar 9, 2015
    JWFan, mavs88, Vjeans and 7 others like this.
  2. 777josem

    777josem ProRes 1080p LPCM

    Joined:
    Sep 1, 2014
    Messages:
    3,787
    Likes Received:
    3,590
    :happy: Thank you so much!
     
  3. rhea

    rhea Well-Known Member

    Joined:
    Jan 6, 2014
    Messages:
    8,171
    Likes Received:
    1,150
    thank you so much :)
     
  4. quake2

    quake2 Well-Known Member

    Joined:
    Oct 11, 2014
    Messages:
    1,631
    Likes Received:
    145
    ok thx
     
  5. cero

    cero Member

    Joined:
    Nov 1, 2013
    Messages:
    149
    Likes Received:
    3
    thanks u
     
  6. adam136

    adam136 Member

    Joined:
    Jan 8, 2015
    Messages:
    62
    Likes Received:
    3
    Thank you
     
  7. faz

    faz Member

    Joined:
    Jan 9, 2014
    Messages:
    331
    Likes Received:
    11
    thank you
     
  8. 江雨燃双鱼

    江雨燃双鱼 Active Member

    Joined:
    Apr 5, 2014
    Messages:
    617
    Likes Received:
    49
  9. slill

    slill Active Member

    Joined:
    Jul 25, 2014
    Messages:
    1,192
    Likes Received:
    19
    thanks
     
  10. Crusha

    Crusha Well-Known Member Capper V . I . P.

    Joined:
    Oct 15, 2014
    Messages:
    2,359
    Likes Received:
    2,933
    thank you :)
     
  11. Chris

    Chris Active Member

    Joined:
    Oct 19, 2013
    Messages:
    758
    Likes Received:
    26
    Thank you
     
  12. Zanx94

    Zanx94 Member

    Joined:
    Nov 21, 2013
    Messages:
    227
    Likes Received:
    10
    Thanks You
     
  13. ericbook

    ericbook Member

    Joined:
    Jan 3, 2014
    Messages:
    202
    Likes Received:
    3
    gracias por el videoo
     
  14. xyzabc

    xyzabc Member

    Joined:
    Jan 13, 2014
    Messages:
    38
    Likes Received:
    0
    Thank you!
     
  15. kevin410

    kevin410 Active Member

    Joined:
    Dec 21, 2014
    Messages:
    140
    Likes Received:
    234
    OMG! Thank you for sharing this amazing file of Celine Dion!
     
  16. sagor

    sagor Member

    Joined:
    Mar 24, 2014
    Messages:
    58
    Likes Received:
    1
    Thanx....Bro
     
  17. iDejv

    iDejv Member

    Joined:
    May 30, 2015
    Messages:
    65
    Likes Received:
    1
    Thank You :)
     
  18. Yakaa

    Yakaa Member

    Joined:
    Jun 29, 2015
    Messages:
    36
    Likes Received:
    1
    thank you
     
  19. sori

    sori Member

    Joined:
    Oct 22, 2013
    Messages:
    117
    Likes Received:
    0
    thank you
     
  20. Vinny

    Vinny Well-Known Member

    Joined:
    Dec 26, 2013
    Messages:
    3,957
    Likes Received:
    51
    Thank U!