Celine Dion - My Heart Will Go On - 1080P

Discussion in 'Music Videos' started by Matheus10, Jan 28, 2018.

  1. Matheus10

    Matheus10 Well-Known Member

    Joined:
    Oct 2, 2017
    Messages:
    432
    Likes Received:
    1,026
    [​IMG]
    Code:
    General
    Format                         : MPEG-4
    Format profile                 : Base Media
    Codec ID                       : isom (isom/iso2/avc1/mp41)
    File size                      : 176 MiB
    Duration                       : 4 min 35 s
    Overall bit rate               : 5 349 kb/s
    
    Video
    ID                             : 1
    Format                         : AVC
    Format/Info                    : Advanced Video Codec
    Format profile                 : High@L4
    Format settings, CABAC         : Yes
    Format settings, RefFrames     : 3 frames
    Codec ID                       : avc1
    Codec ID/Info                  : Advanced Video Coding
    Duration                       : 4 min 35 s
    Bit rate                       : 5 100 kb/s
    Width                          : 1 920 pixels
    Height                         : 1 080 pixels
    Display aspect ratio           : 16:9
    Frame rate mode                : Constant
    Frame rate                     : 25.000 FPS
    Color space                    : YUV
    Chroma subsampling             : 4:2:0
    Bit depth                      : 8 bits
    Scan type                      : Progressive
    Bits/(Pixel*Frame)             : 0.098
    Stream size                    : 167 MiB (95%)
    Writing library                : x264 core 142 r2455 021c0dc
    Encoding settings              : cabac=1 / ref=1 / deblock=1:2:2 / analyse=0x3:0x113 / me=dia / subme=2 / psy=1 / psy_rd=1.00:0.00 / mixed_ref=0 / me_range=16 / chroma_me=1 / trellis=0 / 8x8dct=1 / cqm=0 / deadzone=21,11 / fast_pskip=1 / chroma_qp_offset=0 / threads=3 / lookahead_threads=1 / sliced_threads=0 / nr=0 / decimate=1 / interlaced=0 / bluray_compat=0 / constrained_intra=0 / bframes=3 / b_pyramid=1 / b_adapt=1 / b_bias=0 / direct=1 / weightb=1 / open_gop=0 / weightp=2 / keyint=25 / keyint_min=13 / scenecut=0 / intra_refresh=0 / rc_lookahead=25 / rc=abr / mbtree=1 / bitrate=5100 / ratetol=1.0 / qcomp=0.60 / qpmin=10 / qpmax=51 / qpstep=4 / ip_ratio=1.41 / aq=1:1.00
    Tagged date                    : UTC 2015-12-09 14:30:10
    
    Audio
    ID                             : 2
    Format                         : AAC
    Format/Info                    : Advanced Audio Codec
    Format profile                 : LC
    Codec ID                       : 40
    Duration                       : 4 min 35 s
    Duration_LastFrame             : -6 ms
    Bit rate mode                  : Constant
    Bit rate                       : 256 kb/s
    Channel(s)                     : 2 channels
    Channel positions              : Front: L R
    Sampling rate                  : 44.1 kHz
    Frame rate                     : 43.066 FPS (1024 SPF)
    Compression mode               : Lossy
    Stream size                    : 8.41 MiB (5%)
    Default                        : Yes
    Alternate group                : 1
    Tagged date                    : UTC 2015-12-09 14:30:10
    
    Hidden Content:
    You must either reply or click 'Like' to see the hidden information contained here.
    Hidden Content:
    You must reply before you can see the hidden data contained here.
     
    fabriccio, GSYDAU, Semesa and 26 others like this.
  2. Loading...


  3. axkvf

    axkvf Member

    Joined:
    Jun 4, 2017
    Messages:
    175
    Likes Received:
    5
    thnks
     
  4. mariah89

    mariah89 New Member

    Joined:
    Nov 12, 2016
    Messages:
    19
    Likes Received:
    0
    thnksthnks

     
  5. oops!

    oops! New Member

    Joined:
    Aug 17, 2016
    Messages:
    21
    Likes Received:
    0
    thank you
     
  6. khan

    khan Well-Known Member

    Joined:
    May 11, 2014
    Messages:
    1,660
    Likes Received:
    115
    thanks
     
  7. rudy95

    rudy95 Member

    Joined:
    Dec 31, 2016
    Messages:
    234
    Likes Received:
    5
    Good job
     
  8. Jaru

    Jaru Member

    Joined:
    Sep 24, 2015
    Messages:
    162
    Likes Received:
    8
    thanks
     
  9. Sergiodegros

    Sergiodegros Active Member

    Joined:
    Mar 21, 2017
    Messages:
    820
    Likes Received:
    52
    thank you
     
  10. toonbbv

    toonbbv Well-Known Member

    Joined:
    Dec 11, 2013
    Messages:
    2,289
    Likes Received:
    108
    thank you
     
  11. f.cull91

    f.cull91 Active Member

    Joined:
    Sep 19, 2017
    Messages:
    850
    Likes Received:
    59
    Thankyou!
     
  12. kevin410

    kevin410 Active Member

    Joined:
    Dec 21, 2014
    Messages:
    147
    Likes Received:
    241
    Thank you for sharing. 谢谢!
     
  13. Jesus Miguel Rivero

    Jesus Miguel Rivero Well-Known Member

    Joined:
    Jul 9, 2015
    Messages:
    1,421
    Likes Received:
    37
  14. Sanjukta

    Sanjukta Active Member

    Joined:
    Aug 28, 2017
    Messages:
    193
    Likes Received:
    37
    Thanks.
     
  15. Tadeulife

    Tadeulife Member

    Joined:
    Jan 21, 2016
    Messages:
    815
    Likes Received:
    22
  16. dinhotwain

    dinhotwain Well-Known Member

    Joined:
    Jan 1, 2015
    Messages:
    1,240
    Likes Received:
    143
  17. mavs88

    mavs88 Active Member

    Joined:
    Jun 25, 2016
    Messages:
    139
    Likes Received:
    64
    Thank you for sharing!!
     
  18. tsieniek

    tsieniek Member

    Joined:
    May 15, 2016
    Messages:
    162
    Likes Received:
    4
  19. allynat

    allynat Active Member

    Joined:
    Dec 25, 2017
    Messages:
    927
    Likes Received:
    31
    THANK YOU
     
  20. gayway

    gayway Well-Known Member

    Joined:
    Mar 10, 2016
    Messages:
    1,012
    Likes Received:
    73
    Thank You!
     
  21. zordon

    zordon New Member

    Joined:
    Feb 13, 2018
    Messages:
    1
    Likes Received:
    0
    thanks