Carrie Underwood - Something In The Water (GACHD) 1080i H.264 DD2.0-HDMania

Discussion in 'GAC HD' started by RGF72K, Jan 21, 2015.

  1. RGF72K

    RGF72K ????? Staff Member Super Moderator

    Joined:
    Oct 1, 2013
    Messages:
    1,020
    Likes Received:
    14,605
    My First Cap! :D

    [​IMG] [​IMG] [​IMG] [​IMG] [​IMG] [​IMG] [​IMG] [​IMG] [​IMG]

    General
    ID : 0 (0x0)
    Complete name : Carrie Underwood - Something In The Water (GACHD) 1080i H.264 DD2.0-HDMania.TS
    Format : MPEG-TS
    File size : 402 MiB
    Duration : 3mn 56s
    Overall bit rate mode : Variable
    Overall bit rate : 14.3 Mbps
    Maximum Overall bit rate : 18.0 Mbps

    Video
    ID : 4113 (0x1011)
    Menu ID : 1 (0x1)
    Format : AVC
    Format/Info : Advanced Video Codec
    Format profile : [email protected]
    Format settings, CABAC : Yes
    Format settings, ReFrames : 4 frames
    Format settings, GOP : M=4, N=32
    Codec ID : 27
    Duration : 3mn 56s
    Bit rate mode : Variable
    Bit rate : 13.2 Mbps
    Maximum bit rate : 20.0 Mbps
    Width : 1 920 pixels
    Height : 1 080 pixels
    Display aspect ratio : 16:9
    Frame rate : 29.970 fps
    Color space : YUV
    Chroma subsampling : 4:2:0
    Bit depth : 8 bits
    Scan type : Interlaced
    Scan order : Top Field First
    Bits/(Pixel*Frame) : 0.212
    Stream size : 371 MiB (92%)
    Color primaries : BT.709
    Transfer characteristics : BT.709
    Matrix coefficients : BT.709
    Color range : Limited

    Audio
    ID : 4352 (0x1100)
    Menu ID : 1 (0x1)
    Format : AC-3
    Format/Info : Audio Coding 3
    Mode extension : CM (complete main)
    Format settings, Endianness : Big
    Codec ID : 129
    Duration : 3mn 56s
    Bit rate mode : Constant
    Bit rate : 384 Kbps
    Channel(s) : 2 channels
    Channel positions : Front: L R
    Sampling rate : 48.0 KHz
    Bit depth : 16 bits
    Compression mode : Lossy
    Delay relative to video : -26ms
    Stream size : 10.8 MiB (3%)

    Download:
    Hidden Content:
    You must either reply or click 'Like' to see the hidden information contained here.
    Capped by Me :victory:
     
    Last edited: Jan 21, 2015
  2. Loading...


  3. 1D4EVER

    1D4EVER Active Member

    Joined:
    Dec 22, 2014
    Messages:
    344
    Likes Received:
    22
    Congrats on Your 1st Cap :victory:
     
    RGF72K likes this.
  4. Darkangel

    Darkangel Taylor Fan Staff Member Super Moderator Capper V . I . P. Donor

    Joined:
    Oct 7, 2013
    Messages:
    2,233
    Likes Received:
    18,296
    Good job my friend :D and thanks for Carrie
     
  5. rhea

    rhea Well-Known Member

    Joined:
    Jan 6, 2014
    Messages:
    5,550
    Likes Received:
    312
    thank you so much! :)
     
  6. Crusha

    Crusha Well-Known Member Capper

    Joined:
    Oct 15, 2014
    Messages:
    2,350
    Likes Received:
    2,213
    thank you :)
     
  7. CarrieFan

    CarrieFan Member

    Joined:
    Nov 30, 2014
    Messages:
    182
    Likes Received:
    7
    Congrats! Keep it up!
     
  8. dgnio

    dgnio Well-Known Member

    Joined:
    Jul 7, 2014
    Messages:
    1,602
    Likes Received:
    317
    thanks thanks very very much!!!
     
  9. Ross

    Ross Active Member

    Joined:
    Oct 19, 2014
    Messages:
    276
    Likes Received:
    35
    Amazing great !!!
     
  10. Vinny

    Vinny Active Member

    Joined:
    Dec 26, 2013
    Messages:
    1,839
    Likes Received:
    8
    Thank U!
     
  11. multimediafm

    multimediafm Well-Known Member Donor

    Joined:
    Mar 27, 2014
    Messages:
    8,557
    Likes Received:
    361
    Thanks :love:
    Carrie Underwood - Something In The Water (GACHD) 1080i H.264 DD2.0-HDMania