Carrie Underwood - So Small - 720p hdtv -alaios

Discussion in 'ABC HD' started by Darkangel, Dec 6, 2013.

  1. Darkangel

    Darkangel Taylor Fan Staff Member Super Moderator Capper V . I . P.

    Joined:
    Oct 7, 2013
    Messages:
    2,472
    Likes Received:
    21,591
    [​IMG]
    Code:
    Complete name  : Carrie Underwood - So Small - 720p-hdtv-alaios.mpg
    Format  : MPEG-PS
    File size  : 271 MiB
    Duration  : 3mn 43s
    Overall bit rate mode  : Variable
    Overall bit rate  : 10.2 Mbps
    
    Video
    ID  : 224 (0xE0)
    Format  : MPEG Video
    Commercial name  : HDV 720p
    Format version  : Version 2
    Format profile  : [email protected]
    Format settings, BVOP  : No
    Format settings, Matrix  : Custom
    Format settings, GOP  : M=3, N=24
    Duration  : 3mn 43s
    Bit rate mode  : Variable
    Bit rate  : 9 536 Kbps
    Maximum bit rate  : 9 660 Kbps
    Width  : 1 280 pixels
    Height  : 720 pixels
    Display aspect ratio  : 16:9
    Frame rate  : 50.000 fps
    Standard  : Component
    Color space  : YUV
    Chroma subsampling  : 4:2:0
    Bit depth  : 8 bits
    Scan type  : Progressive
    Compression mode  : Lossy
    Bits/(Pixel*Frame)  : 0.207
    Time code of first frame  : 00:00:00:00
    Time code source  : Group of pictures header
    Stream size  : 254 MiB (94%)
    
    Audio
    ID  : 189 (0xBD)-128 (0x80)
    Format  : AC-3
    Format/Info  : Audio Coding 3
    Mode extension  : CM (complete main)
    Format settings, Endianness  : Big
    Muxing mode  : DVD-Video
    Duration  : 3mn 43s
    Bit rate mode  : Constant
    Bit rate  : 448 Kbps
    Channel count  : 2 channels
    Channel positions  : Front: L R
    Sampling rate  : 48.0 KHz
    Bit depth  : 16 bits
    Compression mode  : Lossy
    Stream size  : 11.9 MiB (4%)
    Hidden Content:
    You must either reply or click 'Like' to see the hidden information contained here.
     
    Last edited: Jan 11, 2014
    NiceBoy, Tiago, misscoak and 11 others like this.
  2. Binh

    Binh Member

    Joined:
    Nov 18, 2013
    Messages:
    86
    Likes Received:
    1
    link dies
    re-up please
     
    ErnestoHot likes this.
  3. Darkangel

    Darkangel Taylor Fan Staff Member Super Moderator Capper V . I . P.

    Joined:
    Oct 7, 2013
    Messages:
    2,472
    Likes Received:
    21,591
    New link added :)
     
  4. limonato

    limonato Member

    Joined:
    Dec 1, 2014
    Messages:
    206
    Likes Received:
    4
    thank you
     
  5. anton

    anton Member

    Joined:
    May 24, 2016
    Messages:
    421
    Likes Received:
    7
    Thanks
     
  6. anton

    anton Member

    Joined:
    May 24, 2016
    Messages:
    421
    Likes Received:
    7
    Thanks
     
  7. luxoricious

    luxoricious Member

    Joined:
    Nov 7, 2015
    Messages:
    88
    Likes Received:
    9
    Thank you so much!
     
  8. ErnestoHot

    ErnestoHot Member

    Joined:
    May 16, 2015
    Messages:
    242
    Likes Received:
    7
    thank you
     
  9. ErnestoHot

    ErnestoHot Member

    Joined:
    May 16, 2015
    Messages:
    242
    Likes Received:
    7
    link dies
    re-up please
     
  10. wkwkwaku

    wkwkwaku Active Member

    Joined:
    May 23, 2015
    Messages:
    706
    Likes Received:
    233
    thanks / link was dead, please reupload
     
  11. Kfandre

    Kfandre New Member

    Joined:
    Jan 22, 2017
    Messages:
    27
    Likes Received:
    1
    Obrigado!