Carrie Underwood - Smoke Break (CMTHD-1080i-DD2.0-RGF72K)-HDMania

Discussion in 'CMT HD' started by RGF72K, Jan 20, 2016.

  1. RGF72K

    RGF72K ????? Staff Member Super Moderator

    Joined:
    Oct 1, 2013
    Messages:
    1,020
    Likes Received:
    14,155
    Carrie Underwood - Smoke Break (CMTHD-1080i-DD2.0-RGF72K)-HDMania

    [​IMG] [​IMG] [​IMG] [​IMG] [​IMG] [​IMG]

    General
    ID : 1 (0x1)
    Complete name : Carrie Underwood - Smoke Break (CMTHD-1080i-DD2.0-RGF72K)-HDMania.ts
    Format : MPEG-TS
    File size : 361 MiB
    Duration : 3mn 32s
    Overall bit rate mode : Variable
    Overall bit rate : 14.3 Mbps

    Video
    ID : 4113 (0x1011)
    Menu ID : 1 (0x1)
    Format : AVC
    Format/Info : Advanced Video Codec
    Format profile : [email protected]
    Format settings, CABAC : Yes
    Format settings, ReFrames : 4 frames
    Codec ID : 27
    Duration : 3mn 32s
    Bit rate mode : Variable
    Bit rate : 13.2 Mbps
    Maximum bit rate : 20.0 Mbps
    Width : 1 920 pixels
    Height : 1 080 pixels
    Display aspect ratio : 16:9
    Frame rate : 29.970 fps
    Color space : YUV
    Chroma subsampling : 4:2:0
    Bit depth : 8 bits
    Scan type : Interlaced
    Scan order : Top Field First
    Bits/(Pixel*Frame) : 0.212
    Stream size : 333 MiB (92%)
    Color range : Limited
    Color primaries : BT.709
    Transfer characteristics : BT.709
    Matrix coefficients : BT.709

    Audio
    ID : 4352 (0x1100)
    Menu ID : 1 (0x1)
    Format : AC-3
    Format/Info : Audio Coding 3
    Mode extension : CM (complete main)
    Format settings, Endianness : Big
    Codec ID : 129
    Duration : 3mn 32s
    Bit rate mode : Constant
    Bit rate : 384 Kbps
    Channel(s) : 2 channels
    Channel positions : Front: L R
    Sampling rate : 48.0 KHz
    Compression mode : Lossy
    Stream size : 9.71 MiB (3%)
    Language : English

    Hidden Content:
    You must either reply or click 'Like' to see the hidden information contained here.

     
    revilo18, rhea, johymbim and 7 others like this.
  2. Loading...


  3. dgnio

    dgnio Well-Known Member

    Joined:
    Jul 7, 2014
    Messages:
    1,526
    Likes Received:
    293
    thank u very much!!!
     
  4. 777josem

    777josem Well-Known Member Uploader

    Joined:
    Sep 1, 2014
    Messages:
    2,429
    Likes Received:
    1,303
    :happy:Thank you so much!
     
  5. Zatimi

    Zatimi Active Member

    Joined:
    Aug 27, 2014
    Messages:
    598
    Likes Received:
    61
    Thanks a million
     
  6. sjones571

    sjones571 New Member

    Joined:
    Oct 25, 2015
    Messages:
    17
    Likes Received:
    0
    Love Carrie
     
  7. Hank

    Hank Member

    Joined:
    Nov 15, 2014
    Messages:
    159
    Likes Received:
    5
    Thank you so much for Carrie!
     
  8. multimediafm

    multimediafm Well-Known Member Donor

    Joined:
    Mar 27, 2014
    Messages:
    8,328
    Likes Received:
    343
    Thanks :love:
    Carrie Underwood - Smoke Break (CMTHD-1080i-DD2.0-RGF72K)-HDMania
     
  9. rhea

    rhea Well-Known Member

    Joined:
    Jan 6, 2014
    Messages:
    5,300
    Likes Received:
    253
    thank you so much! :)
     
  10. CristianMatias

    CristianMatias Member

    Joined:
    Sep 17, 2016
    Messages:
    541
    Likes Received:
    17