Carrie Underwood - Smoke Break (CMTHD-1080i-DD2.0-RGF72K)-HDMania

Discussion in 'CMT HD' started by rgf72k, Jan 20, 2016.

  1. rgf72k

    rgf72k Founder Staff Member AdMiN

    Joined:
    Oct 1, 2013
    Messages:
    1,020
    Likes Received:
    15,465
    Carrie Underwood - Smoke Break (CMTHD-1080i-DD2.0-RGF72K)-HDMania

    [​IMG] [​IMG] [​IMG] [​IMG] [​IMG] [​IMG]

    General
    ID : 1 (0x1)
    Complete name : Carrie Underwood - Smoke Break (CMTHD-1080i-DD2.0-RGF72K)-HDMania.ts
    Format : MPEG-TS
    File size : 361 MiB
    Duration : 3mn 32s
    Overall bit rate mode : Variable
    Overall bit rate : 14.3 Mbps

    Video
    ID : 4113 (0x1011)
    Menu ID : 1 (0x1)
    Format : AVC
    Format/Info : Advanced Video Codec
    Format profile : [email protected]
    Format settings, CABAC : Yes
    Format settings, ReFrames : 4 frames
    Codec ID : 27
    Duration : 3mn 32s
    Bit rate mode : Variable
    Bit rate : 13.2 Mbps
    Maximum bit rate : 20.0 Mbps
    Width : 1 920 pixels
    Height : 1 080 pixels
    Display aspect ratio : 16:9
    Frame rate : 29.970 fps
    Color space : YUV
    Chroma subsampling : 4:2:0
    Bit depth : 8 bits
    Scan type : Interlaced
    Scan order : Top Field First
    Bits/(Pixel*Frame) : 0.212
    Stream size : 333 MiB (92%)
    Color range : Limited
    Color primaries : BT.709
    Transfer characteristics : BT.709
    Matrix coefficients : BT.709

    Audio
    ID : 4352 (0x1100)
    Menu ID : 1 (0x1)
    Format : AC-3
    Format/Info : Audio Coding 3
    Mode extension : CM (complete main)
    Format settings, Endianness : Big
    Codec ID : 129
    Duration : 3mn 32s
    Bit rate mode : Constant
    Bit rate : 384 Kbps
    Channel(s) : 2 channels
    Channel positions : Front: L R
    Sampling rate : 48.0 KHz
    Compression mode : Lossy
    Stream size : 9.71 MiB (3%)
    Language : English

    Hidden Content:
    You must either reply or click 'Like' to see the hidden information contained here.

     
    NiceBoy, revilo18, rhea and 8 others like this.
  2. Loading...


  3. dgnio

    dgnio Well-Known Member

    Joined:
    Jul 7, 2014
    Messages:
    1,768
    Likes Received:
    367
    thank u very much!!!
     
  4. 777josem

    777josem ProRes 1080p LPCM V . I . P. Uploader

    Joined:
    Sep 1, 2014
    Messages:
    3,572
    Likes Received:
    2,745
    :happy:Thank you so much!
     
  5. Zatimi

    Zatimi Active Member

    Joined:
    Aug 27, 2014
    Messages:
    719
    Likes Received:
    131
    Thanks a million
     
  6. sjones571

    sjones571 New Member

    Joined:
    Oct 25, 2015
    Messages:
    17
    Likes Received:
    0
    Love Carrie
     
  7. Hank

    Hank Member

    Joined:
    Nov 15, 2014
    Messages:
    241
    Likes Received:
    13
    Thank you so much for Carrie!
     
  8. multimediafm

    multimediafm Well-Known Member Donor

    Joined:
    Mar 27, 2014
    Messages:
    9,948
    Likes Received:
    576
    Thanks :love:
    Carrie Underwood - Smoke Break (CMTHD-1080i-DD2.0-RGF72K)-HDMania
     
  9. rhea

    rhea Well-Known Member

    Joined:
    Jan 6, 2014
    Messages:
    6,607
    Likes Received:
    674
    thank you so much! :)
     
  10. CristianMatias

    CristianMatias HIGH DEFINITION

    Joined:
    Sep 17, 2016
    Messages:
    806
    Likes Received:
    21