Carrie Underwood - Heartbeat (CMTHD-1080i-DD2.0-RGF72K)-HDMania

Discussion in 'CMT HD' started by RGF72K, Jan 20, 2016.

  1. RGF72K

    RGF72K ????? Staff Member Super Moderator

    Joined:
    Oct 1, 2013
    Messages:
    1,020
    Likes Received:
    13,846
    Carrie Underwood - Heartbeat (CMTHD-1080i-DD2.0-RGF72K)-HDMania

    [​IMG] [​IMG] [​IMG] [​IMG] [​IMG] [​IMG]

    General
    ID : 1 (0x1)
    Complete name : Carrie Underwood - Heartbeat (CMTHD-1080i-DD2.0-RGF72K)-HDMania.ts
    Format : MPEG-TS
    File size : 406 MiB
    Duration : 4mn 1s
    Overall bit rate mode : Variable
    Overall bit rate : 14.1 Mbps

    Video
    ID : 4113 (0x1011)
    Menu ID : 1 (0x1)
    Format : AVC
    Format/Info : Advanced Video Codec
    Format profile : [email protected]
    Format settings, CABAC : Yes
    Format settings, ReFrames : 4 frames
    Codec ID : 27
    Duration : 4mn 1s
    Bit rate mode : Variable
    Bit rate : 13.0 Mbps
    Maximum bit rate : 20.0 Mbps
    Width : 1 920 pixels
    Height : 1 080 pixels
    Display aspect ratio : 16:9
    Frame rate : 29.970 fps
    Color space : YUV
    Chroma subsampling : 4:2:0
    Bit depth : 8 bits
    Scan type : Interlaced
    Scan order : Top Field First
    Bits/(Pixel*Frame) : 0.210
    Stream size : 375 MiB (92%)
    Color range : Limited
    Color primaries : BT.709
    Transfer characteristics : BT.709
    Matrix coefficients : BT.709

    Audio
    ID : 4352 (0x1100)
    Menu ID : 1 (0x1)
    Format : AC-3
    Format/Info : Audio Coding 3
    Mode extension : CM (complete main)
    Format settings, Endianness : Big
    Codec ID : 129
    Duration : 4mn 1s
    Bit rate mode : Constant
    Bit rate : 384 Kbps
    Channel(s) : 2 channels
    Channel positions : Front: L R
    Sampling rate : 48.0 KHz
    Compression mode : Lossy
    Stream size : 11.0 MiB (3%)
    Language : English

    Hidden Content:
    You must either reply or click 'Like' to see the hidden information contained here.
     
  2. Loading...


  3. dgnio

    dgnio Well-Known Member

    Joined:
    Jul 7, 2014
    Messages:
    1,477
    Likes Received:
    285
    thsnk very very much!!!!
     
  4. 777josem

    777josem Well-Known Member Uploader

    Joined:
    Sep 1, 2014
    Messages:
    2,341
    Likes Received:
    1,252
    :happy:Thank you so much!
     
  5. misstiss

    misstiss Member

    Joined:
    Apr 24, 2014
    Messages:
    69
    Likes Received:
    6
    thanks for sharing
     
  6. Zatimi

    Zatimi Active Member

    Joined:
    Aug 27, 2014
    Messages:
    589
    Likes Received:
    57
    thanks a million
     
  7. sjones571

    sjones571 New Member

    Joined:
    Oct 25, 2015
    Messages:
    17
    Likes Received:
    0
    Thanks for this I love Carrie
     
  8. Hank

    Hank Member

    Joined:
    Nov 15, 2014
    Messages:
    156
    Likes Received:
    5
    Thank you so much for Carrie!
     
  9. multimediafm

    multimediafm Well-Known Member Donor

    Joined:
    Mar 27, 2014
    Messages:
    8,058
    Likes Received:
    321
    Thanks :love:
    Carrie Underwood - Heartbeat (CMTHD-1080i-DD2.0-RGF72K)-HDMani
     
  10. rhea

    rhea Well-Known Member

    Joined:
    Jan 6, 2014
    Messages:
    5,193
    Likes Received:
    250
    thank you so much! :)
     
  11. revilo18

    revilo18 Well-Known Member

    Joined:
    May 26, 2016
    Messages:
    1,278
    Likes Received:
    51
    thankkk
     
  12. rikylouis14

    rikylouis14 Active Member

    Joined:
    Jun 27, 2016
    Messages:
    533
    Likes Received:
    226
  13. CristianMatias

    CristianMatias Member

    Joined:
    Sep 17, 2016
    Messages:
    535
    Likes Received:
    14
  14. misscoak

    misscoak Member

    Joined:
    Dec 22, 2016
    Messages:
    319
    Likes Received:
    0
    thanks