Carly Simon - You Know What To Do - 1983

Discussion in 'SD' started by J_Pablo, Jan 24, 2021.

  1. J_Pablo

    J_Pablo Well-Known Member

    Joined:
    Nov 27, 2013
    Messages:
    1,036
    Likes Received:
    621
    [​IMG]


    Format : MPEG-PS
    File size : 289 MiB
    Duration : 4 min 33 s
    Overall bit rate mode : Variable
    Overall bit rate : 8 866 kb/s

    Video
    ID : 224 (0xE0)
    Format : MPEG Video
    Format version : Version 2
    Format profile : Main@Main
    Format settings : BVOP
    Format settings, BVOP : Yes
    Format settings, Matrix : Default
    Format settings, GOP : M=3, N=15
    Format settings, picture struc : Frame
    Duration : 4 min 33 s
    Bit rate mode : Variable
    Bit rate : 7 154 kb/s
    Maximum bit rate : 8 264 kb/s
    Width : 720 pixels
    Height : 480 pixels
    Display aspect ratio : 4:3
    Frame rate : 29.970 (30000/1001) FPS
    Standard : NTSC
    Color space : YUV
    Chroma subsampling : 4:2:0
    Bit depth : 8 bits
    Scan type : Interlaced
    Scan order : Bottom Field First
    Compression mode : Lossy
    Bits/(Pixel*Frame) : 0.691
    Time code of first frame : 00:00:00:00
    Time code source : Group of pictures header
    GOP, Open/Closed : Open
    GOP, Open/Closed of first fram : Closed
    Stream size : 233 MiB (81%)

    Audio
    ID : 189 (0xBD)-160 (0xA0)
    Format : PCM
    Format settings : Big / Signed
    Muxing mode : DVD-Video
    Duration : 4 min 33 s
    Bit rate mode : Constant
    Bit rate : 1 536 kb/s
    Channel(s) : 2 channels
    Sampling rate : 48.0 kHz
    Bit depth : 16 bits
    Stream size : 50.1 MiB (17%)


    mediafire

    Hidden Content:
    You must reply before you can see the hidden data contained here.
     
    clasicos1984 likes this.
  2. Loading...


  3. marcovieirabh

    marcovieirabh Well-Known Member

    Joined:
    May 22, 2017
    Messages:
    1,325
    Likes Received:
    58
  4. jojo335

    jojo335 Well-Known Member

    Joined:
    Jan 18, 2017
    Messages:
    1,156
    Likes Received:
    47
    Thanks!
     
  5. clasicos1984

    clasicos1984 Member

    Joined:
    Nov 8, 2020
    Messages:
    148
    Likes Received:
    1
  6. uzorro

    uzorro Member

    Joined:
    Jun 24, 2016
    Messages:
    50
    Likes Received:
    4
    Gracias.

    Uzorro.
     
  7. ricards51

    ricards51 Well-Known Member

    Joined:
    Oct 10, 2016
    Messages:
    2,929
    Likes Received:
    83
    very special