HDTV Carly Rae Jepsen - The Big Jingle - December 2 2012 DD 5.1 720p

Discussion in 'HD Live Performances' started by Sharpie, Dec 9, 2017.

  1. Sharpie

    Sharpie Well-Known Member Capper

    Joined:
    Jul 8, 2014
    Messages:
    94
    Likes Received:
    1,206
    :love:This Kiss & Call Me Maybe:love:

    [​IMG]
    [​IMG]
    [​IMG]
    General
    ID : 1 (0x1)
    Complete name : Carly Rae Jepsen - The Big Jingle.ts
    Format : MPEG-TS
    File size : 386 MiB
    Duration : 7 min 29 s
    Overall bit rate mode : Variable
    Overall bit rate : 7 206 kb/s
    Movie name : Much Presents The Big Jingle
    Law rating : PG

    Video
    ID : 4369 (0x1111)
    Menu ID : 1 (0x1)
    Format : AVC
    Format/Info : Advanced Video Codec
    Format profile : High@L4
    Format settings : CABAC / 4 Ref Frames
    Format settings, CABAC : Yes
    Format settings, RefFrames : 4 frames
    Codec ID : 27
    Duration : 7 min 29 s
    Bit rate : 6 462 kb/s
    Width : 1 280 pixels
    Height : 720 pixels
    Display aspect ratio : 16:9
    Frame rate : 59.940 (60000/1001) FPS
    Standard : Component
    Color space : YUV
    Chroma subsampling : 4:2:0
    Bit depth : 8 bits
    Scan type : Progressive
    Bits/(Pixel*Frame) : 0.117
    Stream size : 346 MiB (90%)
    Color range : Limited
    Color primaries : BT.709
    Transfer characteristics : BT.709
    Matrix coefficients : BT.709

    Audio
    ID : 4372 (0x1114)
    Menu ID : 1 (0x1)
    Format : AC-3
    Format/Info : Audio Coding 3
    Codec ID : 6
    Duration : 7 min 29 s
    Bit rate mode : Constant
    Bit rate : 384 kb/s
    Channel(s) : 6 channels
    Channel positions : Front: L C R, Side: L R, LFE
    Sampling rate : 48.0 kHz
    Frame rate : 31.250 FPS (1536 SPF)
    Bit depth : 16 bits
    Compression mode : Lossy
    Stream size : 20.6 MiB (5%)
    Language : English
    Service kind : Complete Main

    Text #1
    ID : 4369 (0x1111)-CC1
    Menu ID : 1 (0x1)
    Format : EIA-608
    Muxing mode : SCTE 128 / DTVCC Transport
    Muxing mode, more info : Muxed in Video #1
    Duration : 7 min 29 s
    Bit rate mode : Constant
    Stream size : 0.00 Byte (0%)
    CaptionServiceName : CC1

    Text #2
    ID : 4369 (0x1111)-1
    Menu ID : 1 (0x1)
    Format : EIA-708
    Muxing mode : SCTE 128 / DTVCC Transport
    Muxing mode, more info : Muxed in Video #1
    Duration : 7 min 29 s
    Bit rate mode : Constant
    Stream size : 0.00 Byte (0%)

    Hidden Content:
    You must either reply or click 'Like' to see the hidden information contained here.
     
    Lyd, DGSN, ETAOI and 18 others like this.
  2. Loading...


  3. ScherzyBoy

    ScherzyBoy Well-Known Member V . I . P. Uploader

    Joined:
    May 14, 2015
    Messages:
    1,112
    Likes Received:
    1,138
  4. fisherTW

    fisherTW Well-Known Member

    Joined:
    Dec 3, 2014
    Messages:
    1,752
    Likes Received:
    186
    Thank you.:)
     
  5. dgnio

    dgnio Well-Known Member Capper Uploader

    Joined:
    Jul 7, 2014
    Messages:
    1,973
    Likes Received:
    622
    Thank you very much
     
  6. Pavulon

    Pavulon Well-Known Member Donor

    Joined:
    Mar 22, 2016
    Messages:
    4,479
    Likes Received:
    889
    Thank you
     
  7. opened

    opened Active Member Capper

    Joined:
    Dec 31, 2013
    Messages:
    365
    Likes Received:
    68
    Thank you sharpie!
     
  8. MarkHorax

    MarkHorax Well-Known Member

    Joined:
    Dec 10, 2016
    Messages:
    471
    Likes Received:
    483
    Thank you! :)
     
  9. jack_black

    jack_black Well-Known Member

    Joined:
    Feb 16, 2014
    Messages:
    950
    Likes Received:
    797
    Thank you so much!
     
  10. exterminador

    exterminador Well-Known Member

    Joined:
    Jul 3, 2016
    Messages:
    2,252
    Likes Received:
    193
  11. rhea

    rhea Well-Known Member

    Joined:
    Jan 6, 2014
    Messages:
    7,787
    Likes Received:
    984
    thanks
     
  12. sideshow_bob

    sideshow_bob Well-Known Member

    Joined:
    Dec 20, 2013
    Messages:
    3,190
    Likes Received:
    226
    Thank you
     
  13. kifflom

    kifflom Member

    Joined:
    Jun 24, 2017
    Messages:
    47
    Likes Received:
    1
    Thank you
     
  14. John

    John Member

    Joined:
    Oct 30, 2013
    Messages:
    501
    Likes Received:
    5
    Thanks
     
  15. multimediafm

    multimediafm Well-Known Member Donor

    Joined:
    Mar 27, 2014
    Messages:
    12,654
    Likes Received:
    983
  16. CELOBRAZiL

    CELOBRAZiL Well-Known Member Capper V . I . P. Donor

    Joined:
    Oct 2, 2013
    Messages:
    5,143
    Likes Received:
    16,263
    Thank you so much! :)
     
  17. thaovox

    thaovox Member

    Joined:
    Mar 29, 2018
    Messages:
    85
    Likes Received:
    2
    oh yeahhhhhhhh thank for sharing
     
  18. uminomiyako

    uminomiyako Well-Known Member

    Joined:
    May 28, 2016
    Messages:
    2,318
    Likes Received:
    91
  19. alanlighter

    alanlighter Member

    Joined:
    Aug 29, 2016
    Messages:
    186
    Likes Received:
    4