Carlos Vives ft. Shakira - La Bicicleta (MTV.HD.LA.1080i.DD2.0).-Crusha

Discussion in 'MTV HD' started by Crusha, Aug 2, 2016.

  1. Crusha

    Crusha Well-Known Member Capper

    Joined:
    Oct 15, 2014
    Messages:
    2,350
    Likes Received:
    2,175
    [​IMG]

    Mediainfo

    Code:
    General
    ID                             : 1 (0x1)
    Complete name                  : Carlos Vives ft. Shakira - La Bicicleta (MTV.HD.LA.1080i.DD2.0).-Crusha.ts
    Format                         : MPEG-TS
    File size                      : 166 MiB
    Duration                       : 3mn 56s
    Overall bit rate mode          : Variable
    Overall bit rate               : 5 879 Kbps
    
    Video
    ID                             : 4472 (0x1178)
    Menu ID                        : 1893 (0x765)
    Format                         : AVC
    Format/Info                    : Advanced Video Codec
    Format profile                 : [email protected]
    Format settings, CABAC         : Yes
    Format settings, ReFrames      : 4 frames
    Codec ID                       : 27
    Duration                       : 3mn 56s
    Bit rate                       : 5 200 Kbps
    Width                          : 1 920 pixels
    Height                         : 1 080 pixels
    Display aspect ratio           : 16:9
    Frame rate                     : 29.970 fps
    Color space                    : YUV
    Chroma subsampling             : 4:2:0
    Bit depth                      : 8 bits
    Scan type                      : MBAFF
    Scan order                     : Top Field First
    Bits/(Pixel*Frame)             : 0.084
    Stream size                    : 146 MiB (88%)
    Color range                    : Limited
    Color primaries                : BT.709
    Transfer characteristics       : BT.709
    Matrix coefficients            : BT.709
    
    Audio
    ID                             : 5014 (0x1396)
    Menu ID                        : 1893 (0x765)
    Format                         : AC-3
    Format/Info                    : Audio Coding 3
    Mode extension                 : CM (complete main)
    Format settings, Endianness    : Big
    Codec ID                       : 6
    Duration                       : 3mn 56s
    Bit rate mode                  : Constant
    Bit rate                       : 384 Kbps
    Channel(s)                     : 2 channels
    Channel positions              : Front: L R
    Sampling rate                  : 48.0 KHz
    Bit depth                      : 16 bits
    Compression mode               : Lossy
    Delay relative to video        : -33ms
    Stream size                    : 10.8 MiB (7%)
    Language                       : English
    
    
    Hidden Content:
    You must reply before you can see the hidden data contained here.
    Password: crusha
     
    stokofiche and rhea like this.
  2. Loading...


  3. rhea

    rhea Well-Known Member

    Joined:
    Jan 6, 2014
    Messages:
    5,403
    Likes Received:
    262
    thank you
     
  4. tialokilla

    tialokilla New Member

    Joined:
    Aug 4, 2016
    Messages:
    3
    Likes Received:
    0
    Thank you
     
  5. maurohachen

    maurohachen Member

    Joined:
    Feb 24, 2015
    Messages:
    396
    Likes Received:
    17
    la bicicleta
     
  6. khan

    khan Well-Known Member

    Joined:
    May 11, 2014
    Messages:
    1,054
    Likes Received:
    57
    THANX
     
  7. PedroCorrea

    PedroCorrea Active Member

    Joined:
    Aug 21, 2014
    Messages:
    358
    Likes Received:
    26
  8. repj13

    repj13 Member

    Joined:
    Jul 9, 2016
    Messages:
    108
    Likes Received:
    8
    hthajjuu
     
  9. stokofiche

    stokofiche New Member

    Joined:
    Jun 22, 2014
    Messages:
    5
    Likes Received:
    1
    Very good
     
  10. tapions

    tapions Active Member

    Joined:
    Aug 30, 2016
    Messages:
    769
    Likes Received:
    56
    gracias
     
  11. valtersc

    valtersc Member

    Joined:
    Nov 19, 2014
    Messages:
    93
    Likes Received:
    2
    thanks
     
  12. cero

    cero Member

    Joined:
    Nov 1, 2013
    Messages:
    91
    Likes Received:
    0
    cool song thks!!!
     
  13. hanshermann

    hanshermann Active Member

    Joined:
    Aug 24, 2016
    Messages:
    1,489
    Likes Received:
    5
    wahts taht
     
  14. Hyrus

    Hyrus Arianator / Selenator / Victorian / LBS* Donor

    Joined:
    Feb 9, 2015
    Messages:
    1,106
    Likes Received:
    641
    Thanks so much for Shakira :happy::victory:
     
  15. Alvena

    Alvena Member

    Joined:
    Mar 25, 2014
    Messages:
    180
    Likes Received:
    7
    thanks
     
  16. sorb666

    sorb666 Member

    Joined:
    Dec 10, 2016
    Messages:
    54
    Likes Received:
    3
    SADSAD
     
  17. orgulo

    orgulo Member

    Joined:
    Jan 16, 2017
    Messages:
    451
    Likes Received:
    5
    thanks
     
  18. guicha24

    guicha24 New Member

    Joined:
    Jan 27, 2014
    Messages:
    12
    Likes Received:
    0
  19. looky

    looky Member

    Joined:
    Wednesday
    Messages:
    147
    Likes Received:
    3