FEED Cardi B - Money - 2019 Grammy Awards BACKHAUL 1080i HDTV FLAC5.1 H.264-TrollHD

Discussion in 'HD Live Performances' started by CELOBRAZiL, Feb 16, 2019.

  1. CELOBRAZiL

    CELOBRAZiL Well-Known Member Capper V . I . P. Donor

    Joined:
    Oct 2, 2013
    Messages:
    7,216
    Likes Received:
    23,735
    Cardi B - Money - 2019 Grammy Awards BACKHAUL 1080i HDTV FLAC5.1 H.264-TrollHD

    [​IMG]



    Format : Matroska
    Format version : Version 4
    File size : 1.10 GiB
    Duration : 4 min 42 s
    Overall bit rate mode : Variable
    Overall bit rate : 33.5 Mb/s
    Encoded date : UTC 2019-02-16 17:07:31
    Writing application : mkvmerge v20.0.0 ('I Am The Sun') 64-bit
    Writing library : libebml v1.3.5 + libmatroska v1.4.8

    Video
    ID : 1
    Format : AVC
    Format/Info : Advanced Video Codec
    Format profile : High@L4.1
    Format settings : CABAC / 4 Ref Frames
    Format settings, CABAC : Yes
    Format settings, RefFrames : 4 frames
    Codec ID : V_MPEG4/ISO/AVC
    Duration : 4 min 42 s
    Bit rate : 29.4 Mb/s
    Width : 1 920 pixels
    Height : 1 080 pixels
    Display aspect ratio : 16:9
    Frame rate mode : Variable
    Frame rate : 59.940 (60000/1001) FPS
    Original frame rate : 29.970 (30000/1001) FPS
    Color space : YUV
    Chroma subsampling : 4:2:0
    Bit depth : 8 bits
    Scan type : Interlaced
    Scan type, store method : Separated fields
    Scan order : Top Field First
    Bits/(Pixel*Frame) : 0.237
    Stream size : 990 MiB (88%)
    Default : Yes
    Forced : No
    Color range : Limited
    Color primaries : BT.709
    Transfer characteristics : BT.709
    Matrix coefficients : BT.709

    Audio #1
    ID : 2
    Format : FLAC
    Format/Info : Free Lossless Audio Codec
    Codec ID : A_FLAC
    Duration : 4 min 42 s
    Bit rate mode : Variable
    Bit rate : 3 645 kb/s
    Channel(s) : 6 channels
    Channel layout : L R C LFE Ls Rs
    Sampling rate : 48.0 kHz
    Frame rate : 11.719 FPS (4096 SPF)
    Bit depth : 24 bits
    Compression mode : Lossless
    Delay relative to video : 5 ms
    Stream size : 123 MiB (11%)
    Writing library : libFLAC 1.3.1 (UTC 2014-11-25)
    Language : English
    Default : Yes
    Forced : No

    Audio #2
    ID : 3
    Format : MPEG Audio
    Format version : Version 1
    Format profile : Layer 2
    Codec ID : A_MPEG/L2
    Codec ID/Hint : MP2
    Duration : 4 min 42 s
    Bit rate mode : Constant
    Bit rate : 384 kb/s
    Channel(s) : 2 channels
    Sampling rate : 48.0 kHz
    Frame rate : 41.667 FPS (1152 SPF)
    Compression mode : Lossy
    Delay relative to video : 16 ms
    Stream size : 12.9 MiB (1%)
    Language : English
    Default : No
    Forced : No


    Link(s):
    Hidden Content:
    You must either reply or click 'Like' to see the hidden information contained here.
     
    Last edited: Feb 19, 2019
  2. Loading...


  3. CELOBRAZiL

    CELOBRAZiL Well-Known Member Capper V . I . P. Donor

    Joined:
    Oct 2, 2013
    Messages:
    7,216
    Likes Received:
    23,735
    :love::love::love:

    I'm uploading... Just wait! :)
     
  4. CELOBRAZiL

    CELOBRAZiL Well-Known Member Capper V . I . P. Donor

    Joined:
    Oct 2, 2013
    Messages:
    7,216
    Likes Received:
    23,735
    Added zippyshare links! :)
     
  5. esliminaj

    esliminaj Active Member

    Joined:
    May 15, 2017
    Messages:
    338
    Likes Received:
    25
    thanks
     
    CELOBRAZiL likes this.
  6. esliminaj

    esliminaj Active Member

    Joined:
    May 15, 2017
    Messages:
    338
    Likes Received:
    25
    thanks
     
  7. dimrous22

    dimrous22 Well-Known Member

    Joined:
    Sep 11, 2016
    Messages:
    1,202
    Likes Received:
    122
    thanks
     
    CELOBRAZiL likes this.
  8. princebasil

    princebasil Active Member

    Joined:
    Jul 4, 2017
    Messages:
    732
    Likes Received:
    72
    Thank you!
     
    CELOBRAZiL likes this.
  9. rhea

    rhea Well-Known Member

    Joined:
    Jan 6, 2014
    Messages:
    9,474
    Likes Received:
    1,560
    thank you so much!
     
    CELOBRAZiL likes this.
  10. Amauri Luiz

    Amauri Luiz Well-Known Member

    Joined:
    Jan 14, 2014
    Messages:
    2,270
    Likes Received:
    116
    Thank you so much!
     
    CELOBRAZiL likes this.
  11. ssperez17

    ssperez17 Member

    Joined:
    May 22, 2017
    Messages:
    176
    Likes Received:
    18
    Thanks
     
    CELOBRAZiL likes this.
  12. golftae

    golftae Well-Known Member

    Joined:
    May 14, 2014
    Messages:
    1,819
    Likes Received:
    1,107
    Thank you
     
    CELOBRAZiL likes this.
  13. hulimili

    hulimili Member

    Joined:
    Feb 6, 2018
    Messages:
    129
    Likes Received:
    18
    wonderful
     
    CELOBRAZiL likes this.
  14. mcslimshady

    mcslimshady Well-Known Member

    Joined:
    Jun 20, 2016
    Messages:
    2,543
    Likes Received:
    93
    thanks man
     
    CELOBRAZiL likes this.
  15. django

    django Active Member

    Joined:
    Oct 21, 2014
    Messages:
    425
    Likes Received:
    34
    thanks
     
    CELOBRAZiL likes this.
  16. polydown

    polydown Active Member

    Joined:
    Oct 28, 2016
    Messages:
    260
    Likes Received:
    25
    muchas gracias.
     
    CELOBRAZiL likes this.
  17. junior.ca

    junior.ca Well-Known Member

    Joined:
    Jun 1, 2014
    Messages:
    2,272
    Likes Received:
    136
    obrigado
     
    CELOBRAZiL likes this.
  18. Marcos Sannin

    Marcos Sannin Well-Known Member

    Joined:
    Dec 11, 2014
    Messages:
    1,119
    Likes Received:
    1,533
    thank you
     
    CELOBRAZiL likes this.
  19. GABSEDP

    GABSEDP @gabsedp

    Joined:
    Apr 16, 2014
    Messages:
    1,193
    Likes Received:
    198
    THANKS
     
    CELOBRAZiL likes this.
  20. aluvdan

    aluvdan Active Member

    Joined:
    May 23, 2016
    Messages:
    338
    Likes Received:
    27
    THANKS
     
    CELOBRAZiL likes this.
  21. GABSEDP

    GABSEDP @gabsedp

    Joined:
    Apr 16, 2014
    Messages:
    1,193
    Likes Received:
    198
    Waiting Google Drive links