MOVIE Camp Rock - (2008) [1080p BluRay Remux AVC DTS-HD MA 5.1]

Discussion in 'Cinema Center' started by clublandtiger4, Jun 9, 2019.

  1. clublandtiger4

    clublandtiger4 The Pirate Princess

    Joined:
    Jun 8, 2019
    Messages:
    264
    Likes Received:
    909
    [​IMG]

    [​IMG]
    [​IMG]
    [​IMG]
    [​IMG]

    Code:
    Format                                   : Matroska
    Format version                           : Version 4 / Version 2
    File size                                : 23.9 GiB
    Duration                                 : 1h 38mn
    Overall bit rate mode                    : Variable
    Overall bit rate                         : 34.7 Mbps
    Movie name                               : Camp.Rock.2008.BluRay.Remux.1080p.AVC.DTS-HD.MA.5.1
    Encoded date                             : UTC 2016-03-31 00:01:17
    Writing application                      : mkvmerge v9.0.1 ('Obstacles') 64bit
    Writing library                          : libebml v1.3.3 + libmatroska v1.4.4
    
    Video
    ID                                       : 1
    Format                                   : AVC
    Format/Info                              : Advanced Video Codec
    Format profile                           : High@L4.1
    Format settings, CABAC                   : Yes
    Format settings, ReFrames                : 4 frames
    Codec ID                                 : V_MPEG4/ISO/AVC
    Duration                                 : 1h 38mn
    Bit rate mode                            : Variable
    Bit rate                                 : 30.0 Mbps
    Maximum bit rate                         : 32.5 Mbps
    Width                                    : 1 920 pixels
    Height                                   : 1 080 pixels
    Display aspect ratio                     : 16:9
    Frame rate mode                          : Constant
    Frame rate                               : 23.976 (24000/1001) fps
    Color space                              : YUV
    Chroma subsampling                       : 4:2:0
    Bit depth                                : 8 bits
    Scan type                                : Progressive
    Bits/(Pixel*Frame)                       : 0.604
    Stream size                              : 20.7 GiB (86%)
    Title                                    : MPEG-4 AVC Video - 1080p / 23.976 fps / 16:9 / High Profile 4.1 / 30036 kbps
    Language                                 : English
    Default                                  : Yes
    Forced                                   : No
    Color range                              : Limited
    Color primaries                          : BT.709
    Transfer characteristics                 : BT.709
    Matrix coefficients                      : BT.709
    
    Audio #1
    ID                                       : 2
    Format                                   : DTS
    Format/Info                              : Digital Theater Systems
    Format profile                           : MA / Core
    Mode                                     : 16
    Format settings, Endianness              : Big
    Codec ID                                 : A_DTS
    Duration                                 : 1h 38mn
    Bit rate mode                            : Variable / Constant
    Bit rate                                 : 4 067 Kbps / 1 509 Kbps
    Channel(s)                               : 6 channels
    Channel positions                        : Front: L C R, Side: L R, LFE
    Sampling rate                            : 48.0 KHz
    Frame rate                               : 93.750 fps (512 spf)
    Bit depth                                : 24 bits
    Compression mode                         : Lossless / Lossy
    Stream size                              : 2.80 GiB (12%)
    Title                                    : DTS-HD Master Audio - 5.1 ch / 48 kHz / 24-bit / 4067 kbps
    Language                                 : English
    Default                                  : Yes
    Forced                                   : No
    
    Audio #2
    ID                                       : 3
    Format                                   : AC-3
    Format/Info                              : Audio Coding 3
    Mode extension                           : CM (complete main)
    Format settings, Endianness              : Big
    Codec ID                                 : A_AC3
    Duration                                 : 1h 38mn
    Bit rate mode                            : Constant
    Bit rate                                 : 448 Kbps
    Channel(s)                               : 6 channels
    Channel positions                        : Front: L C R, Side: L R, LFE
    Sampling rate                            : 48.0 KHz
    Frame rate                               : 31.250 fps (1536 spf)
    Compression mode                         : Lossy
    Stream size                              : 316 MiB (1%)
    Title                                    : Dolby Digital (AC-3) Audio - 5.1 ch / 48 kHz / 16-bit / 448 kbps (Karaoke Audio Track)
    Language                                 : English
    Default                                  : No
    Forced                                   : No
    
    
    

    Download Sever - DROPBOX

    Hidden Content:
    You must reply before you can see the hidden data contained here.
    Or

    Download Server - Google Drive

    Coming Later Today
     
    Andy h, mileysbae and vubika like this.
  2. Loading...


  3. Lucas oliveira

    Lucas oliveira Member

    Joined:
    May 29, 2016
    Messages:
    254
    Likes Received:
    16
  4. Artan1528

    Artan1528 Active Member

    Joined:
    Dec 14, 2016
    Messages:
    385
    Likes Received:
    70
    Thanks
     
  5. t4n7iR

    t4n7iR Member

    Joined:
    Feb 18, 2018
    Messages:
    232
    Likes Received:
    2
    thank you so much
     
  6. whatilikeaboutyoufan

    whatilikeaboutyoufan Member

    Joined:
    Oct 11, 2018
    Messages:
    273
    Likes Received:
    14
  7. cstk

    cstk New Member

    Joined:
    May 21, 2019
    Messages:
    28
    Likes Received:
    0
    thanks
     
  8. jobro

    jobro Member

    Joined:
    Nov 30, 2014
    Messages:
    73
    Likes Received:
    3
    THANKSSSS
     
  9. vubika

    vubika New Member

    Joined:
    Jul 1, 2019
    Messages:
    7
    Likes Received:
    0
    thanks for upload
     
  10. Jb3nj-JB

    Jb3nj-JB Well-Known Member

    Joined:
    Aug 30, 2017
    Messages:
    433
    Likes Received:
    295
    thanks
     
  11. mileysbae

    mileysbae Member

    Joined:
    Dec 16, 2017
    Messages:
    129
    Likes Received:
    10
    wuuu nice thanks
     
  12. yilder1

    yilder1 Active Member

    Joined:
    Aug 25, 2016
    Messages:
    901
    Likes Received:
    160
    thanks
     
  13. ehxhale

    ehxhale New Member

    Joined:
    Oct 13, 2018
    Messages:
    21
    Likes Received:
    0
    Thank you!!
     
  14. YayMe!

    YayMe! Member

    Joined:
    Jan 1, 2019
    Messages:
    184
    Likes Received:
    22
    thanks
     
  15. Dexter1998

    Dexter1998 Active Member

    Joined:
    Oct 1, 2016
    Messages:
    243
    Likes Received:
    28
  16. LGFan201

    LGFan201 Active Member

    Joined:
    Oct 24, 2018
    Messages:
    338
    Likes Received:
    157
  17. mihadaniela

    mihadaniela Member

    Joined:
    Aug 26, 2019
    Messages:
    62
    Likes Received:
    0
    thank you!!
     
  18. mariellisaa

    mariellisaa Member

    Joined:
    Jan 17, 2016
    Messages:
    215
    Likes Received:
    16
  19. eliceo45036

    eliceo45036 Member

    Joined:
    Feb 23, 2018
    Messages:
    171
    Likes Received:
    3
  20. Madleblancxx21

    Madleblancxx21 Active Member

    Joined:
    Nov 28, 2018
    Messages:
    476
    Likes Received:
    76
  21. Pham tuan

    Pham tuan Well-Known Member

    Joined:
    Dec 23, 2018
    Messages:
    1,218
    Likes Received:
    129
    thanks