HDTV Camila Cabello - Never Be the Same (The Tonight Show Starring Jimmy Fallon 01-10-2018) 1080i HDTV

Discussion in 'HD Live Performances' started by rgf72k, Jan 11, 2018.

  1. rgf72k

    rgf72k Founder Staff Member AdMiN Uploader

    Joined:
    Oct 1, 2013
    Messages:
    1,242
    Likes Received:
    18,873
    Camila Cabello - Never Be the Same
    (The Tonight Show Starring Jimmy Fallon 01-10-2018)
    1080i HDTV DD2.0 H.264-HDMania

    [​IMG]
    [​IMG]
    [​IMG] [​IMG] [​IMG]

    General
    ID : 1 (0x1)
    Complete name : Camila Cabello - Never Be the Same (The Tonight Show Starring Jimmy Fallon 01-10-2018) 1080i HDTV DD2.0 H.264-HDMania.ts
    Format : MPEG-TS
    File size : 542 MiB
    Duration : 5 min 20 s
    Overall bit rate mode : Variable
    Overall bit rate : 14.2 Mb/s

    Video
    ID : 4113 (0x1011)
    Menu ID : 1 (0x1)
    Format : AVC
    Format/Info : Advanced Video Codec
    Format profile : Main@L4
    Format settings : CABAC / 4 Ref Frames
    Format settings, CABAC : Yes
    Format settings, RefFrames : 4 frames
    Codec ID : 27
    Duration : 5 min 20 s
    Bit rate mode : Variable
    Bit rate : 13.1 Mb/s
    Maximum bit rate : 20.0 Mb/s
    Width : 1 920 pixels
    Height : 1 080 pixels
    Display aspect ratio : 16:9
    Frame rate : 29.970 (30000/1001) FPS
    Color space : YUV
    Chroma subsampling : 4:2:0
    Bit depth : 8 bits
    Scan type : Interlaced
    Scan type, store method : Separated fields
    Scan order : Top Field First
    Bits/(Pixel*Frame) : 0.211
    Stream size : 500 MiB (92%)
    Color range : Limited
    Color primaries : BT.709
    Transfer characteristics : BT.709
    Matrix coefficients : BT.709

    Audio
    ID : 4352 (0x1100)
    Menu ID : 1 (0x1)
    Format : AC-3
    Format/Info : Audio Coding 3
    Codec ID : 129
    Duration : 5 min 20 s
    Bit rate mode : Constant
    Bit rate : 384 kb/s
    Channel(s) : 2 channels
    Channel positions : Front: L R
    Sampling rate : 48.0 kHz
    Frame rate : 31.250 FPS (1536 SPF)
    Bit depth : 16 bits
    Compression mode : Lossy
    Stream size : 14.7 MiB (3%)
    Language : English
    Service kind : Complete Main

    Download:

    Hidden Content:
    You must either reply or click 'Like' to see the hidden information contained here.
    Capped By Me :victory:
     
    thetrusted, kismakk, MishL and 73 others like this.
  2. Loading...


  3. Thassyo

    Thassyo Well-Known Member

    Joined:
    Oct 9, 2013
    Messages:
    2,915
    Likes Received:
    1,318
    Thanks for Camila!
     
    pinky2 likes this.
  4. meloman67

    meloman67 Active Member

    Joined:
    Jun 8, 2014
    Messages:
    890
    Likes Received:
    134
  5. edgar

    edgar Well-Known Member V . I . P.

    Joined:
    Oct 12, 2013
    Messages:
    2,156
    Likes Received:
    2,146
    Thank you so Much :love::love::love::love:
     
  6. Rihanna

    Rihanna Member

    Joined:
    Feb 9, 2015
    Messages:
    155
    Likes Received:
    18
    Thanks you
     
  7. rhea

    rhea Well-Known Member

    Joined:
    Jan 6, 2014
    Messages:
    8,373
    Likes Received:
    1,196
    thank you
     
  8. fisherTW

    fisherTW Well-Known Member

    Joined:
    Dec 3, 2014
    Messages:
    1,828
    Likes Received:
    188
    Thank you.:)
     
  9. guanche1985

    guanche1985 Active Member

    Joined:
    Nov 23, 2016
    Messages:
    761
    Likes Received:
    53
  10. Hyrus

    Hyrus Arianator / Selenator / Victorian / Saxobeat / LBS Donor

    Joined:
    Feb 9, 2015
    Messages:
    1,472
    Likes Received:
    1,458
    Thanks so much for the gorgeous Camila!! :love::love::)
    @rgf72k Was there any other talk / game / or sketch segment with Camila? If so, can you post it too, please? Thank you!
     
  11. Vagabond

    Vagabond Member

    Joined:
    Jun 23, 2014
    Messages:
    248
    Likes Received:
    5
    Thank you!!
     
  12. Pavulon

    Pavulon Well-Known Member Donor

    Joined:
    Mar 22, 2016
    Messages:
    4,668
    Likes Received:
    1,029
    thank you very much :D
     
  13. withcap

    withcap Well-Known Member

    Joined:
    Oct 29, 2013
    Messages:
    2,345
    Likes Received:
    205
    Thanks for Camila!
     
  14. miniidiot

    miniidiot New Member

    Joined:
    Oct 23, 2017
    Messages:
    28
    Likes Received:
    1
    Thanks for Camila!
     
  15. toonbbv

    toonbbv Well-Known Member

    Joined:
    Dec 11, 2013
    Messages:
    2,289
    Likes Received:
    108
    thank you
     
  16. Sam.the.Man

    Sam.the.Man Active Member

    Joined:
    Dec 7, 2015
    Messages:
    251
    Likes Received:
    237
  17. voidstiles

    voidstiles Active Member

    Joined:
    May 19, 2016
    Messages:
    303
    Likes Received:
    96
  18. jeaneyne

    jeaneyne Well-Known Member

    Joined:
    Oct 21, 2013
    Messages:
    1,394
    Likes Received:
    560
  19. power21580

    power21580 Member

    Joined:
    Apr 12, 2016
    Messages:
    217
    Likes Received:
    4
    Thank you so Much
     
  20. killers23

    killers23 Active Member

    Joined:
    Feb 27, 2015
    Messages:
    945
    Likes Received:
    98
  21. 010juninho

    010juninho Well-Known Member

    Joined:
    Jan 16, 2016
    Messages:
    1,185
    Likes Received:
    52
    Thank You