WEB-RiP Camila Cabello - Live from Youtube 12.01.2018 1080p

Discussion in 'Interviews / TV shows / Others' started by Pavulon, Jan 12, 2018.

  1. Pavulon

    Pavulon Well-Known Member Donor

    Joined:
    Mar 22, 2016
    Messages:
    4,553
    Likes Received:
    958
    Camila Cabello - Live from Youtube 12.01.2018



    Format : MPEG-4
    Format profile : Base Media
    Codec ID : isom (isom/iso2/avc1/mp41)
    File size : 1.10 GiB
    Duration : 49 min 20 s
    Overall bit rate : 3 190 kb/s
    Writing application : Lavf54.63.104

    Video
    ID : 1
    Format : AVC
    Format/Info : Advanced Video Codec
    Format profile : High@L4
    Format settings : CABAC / 2 Ref Frames
    Format settings, CABAC : Yes
    Format settings, ReFrames : 2 frames
    Codec ID : avc1
    Codec ID/Info : Advanced Video Coding
    Duration : 49 min 20 s
    Bit rate : 3 056 kb/s
    Width : 1 920 pixels
    Height : 1 080 pixels
    Display aspect ratio : 16:9
    Frame rate mode : Constant
    Frame rate : 30.000 FPS
    Color space : YUV
    Chroma subsampling : 4:2:0
    Bit depth : 8 bits
    Scan type : Progressive
    Bits/(Pixel*Frame) : 0.049
    Stream size : 1.05 GiB (96%)
    Color range : Limited
    Color primaries : BT.709
    Transfer characteristics : BT.709
    Matrix coefficients : BT.709

    Audio
    ID : 2
    Format : AAC
    Format/Info : Advanced Audio Codec
    Format profile : LC
    Codec ID : mp4a-40-2
    Duration : 49 min 20 s
    Bit rate mode : Constant
    Bit rate : 126 kb/s
    Channel(s) : 2 channels
    Channel positions : Front: L R
    Sampling rate : 44.1 kHz
    Frame rate : 43.066 FPS (1024 SPF)
    Compression mode : Lossy
    Stream size : 44.3 MiB (4%)
    Default : Yes
    Alternate group : 1

    Hidden Content:
    You must either reply or click 'Like' to see the hidden information contained here.
     
  2. Loading...


  3. edgar

    edgar Well-Known Member V . I . P.

    Joined:
    Oct 12, 2013
    Messages:
    2,033
    Likes Received:
    2,045
    Thank you:love::love::love:
     
  4. Antonio Barros

    Antonio Barros Well-Known Member

    Joined:
    Nov 14, 2013
    Messages:
    1,241
    Likes Received:
    211
    thanxxxxxxxxx
     
  5. DEADLYCYNS

    DEADLYCYNS Member

    Joined:
    Feb 2, 2017
    Messages:
    428
    Likes Received:
    19
    Thank you
     
  6. marian

    marian Member

    Joined:
    Mar 19, 2017
    Messages:
    38
    Likes Received:
    1
    thanks
     
  7. P1956

    P1956 Active Member

    Joined:
    Aug 18, 2014
    Messages:
    529
    Likes Received:
    58
    thanks
     
  8. MACHADO

    MACHADO Active Member

    Joined:
    Jun 12, 2017
    Messages:
    550
    Likes Received:
    34
    grcias
     
  9. ctremolada

    ctremolada Member

    Joined:
    May 7, 2014
    Messages:
    110
    Likes Received:
    5
    Thanks!!
     
  10. yoereyesr21

    yoereyesr21 Active Member

    Joined:
    Mar 12, 2016
    Messages:
    321
    Likes Received:
    44
  11. TaylorFan13

    TaylorFan13 Well-Known Member Capper

    Joined:
    Oct 19, 2014
    Messages:
    421
    Likes Received:
    1,861
    Thank you...
     
  12. lok111

    lok111 Active Member

    Joined:
    Jun 28, 2017
    Messages:
    123
    Likes Received:
    26
    tkssss