WEB-RiP Camila Cabello - Live from Youtube 12.01.2018 1080p

Discussion in 'Interviews / TV shows / Others' started by Pavulon, Jan 12, 2018 at 4:41 PM.

  1. Pavulon

    Pavulon Well-Known Member

    Joined:
    Mar 22, 2016
    Messages:
    3,808
    Likes Received:
    488
    Camila Cabello - Live from Youtube 12.01.2018



    Format : MPEG-4
    Format profile : Base Media
    Codec ID : isom (isom/iso2/avc1/mp41)
    File size : 1.10 GiB
    Duration : 49 min 20 s
    Overall bit rate : 3 190 kb/s
    Writing application : Lavf54.63.104

    Video
    ID : 1
    Format : AVC
    Format/Info : Advanced Video Codec
    Format profile : [email protected]
    Format settings : CABAC / 2 Ref Frames
    Format settings, CABAC : Yes
    Format settings, ReFrames : 2 frames
    Codec ID : avc1
    Codec ID/Info : Advanced Video Coding
    Duration : 49 min 20 s
    Bit rate : 3 056 kb/s
    Width : 1 920 pixels
    Height : 1 080 pixels
    Display aspect ratio : 16:9
    Frame rate mode : Constant
    Frame rate : 30.000 FPS
    Color space : YUV
    Chroma subsampling : 4:2:0
    Bit depth : 8 bits
    Scan type : Progressive
    Bits/(Pixel*Frame) : 0.049
    Stream size : 1.05 GiB (96%)
    Color range : Limited
    Color primaries : BT.709
    Transfer characteristics : BT.709
    Matrix coefficients : BT.709

    Audio
    ID : 2
    Format : AAC
    Format/Info : Advanced Audio Codec
    Format profile : LC
    Codec ID : mp4a-40-2
    Duration : 49 min 20 s
    Bit rate mode : Constant
    Bit rate : 126 kb/s
    Channel(s) : 2 channels
    Channel positions : Front: L R
    Sampling rate : 44.1 kHz
    Frame rate : 43.066 FPS (1024 SPF)
    Compression mode : Lossy
    Stream size : 44.3 MiB (4%)
    Default : Yes
    Alternate group : 1

    Hidden Content:
    You must either reply or click 'Like' to see the hidden information contained here.
     
  2. Loading...


  3. edgar

    edgar Well-Known Member V . I . P.

    Joined:
    Oct 12, 2013
    Messages:
    1,795
    Likes Received:
    1,778
  4. Antonio Barros

    Antonio Barros Well-Known Member

    Joined:
    Nov 14, 2013
    Messages:
    1,053
    Likes Received:
    103
  5. DEADLYCYNS

    DEADLYCYNS Member

    Joined:
    Feb 2, 2017
    Messages:
    372
    Likes Received:
    19
  6. marian

    marian Member

    Joined:
    Mar 19, 2017
    Messages:
    31
    Likes Received:
    1
  7. P1956

    P1956 Active Member

    Joined:
    Aug 18, 2014
    Messages:
    457
    Likes Received:
    55