WEB-RiP Camila Cabello - Interview ~Camila [Album]~ - YouTube Live - 2018-01-12 (1080p) (Hyrus)

Discussion in 'Interviews / TV shows / Others' started by Hyrus, Jan 12, 2018 at 6:59 PM.

  1. Hyrus

    Hyrus Arianator / Selenator / Victorian / Saxobeat / LBS Donor

    Joined:
    Feb 9, 2015
    Messages:
    1,354
    Likes Received:
    1,100
    I see this video has already been uploaded but this is my own rip and I've uploaded it to a different filehost; so it might be useful for people having issues downloading from MEGA due to bandwith limits.
    PS - I also included the auto-generated English subtitles in a .srt file.

    [​IMG]
    [​IMG]
    [​IMG]
    [​IMG]
    [​IMG]

    Thumbnails:
    [​IMG]
    Video
    ID : 1
    Format : AVC
    Format/Info : Advanced Video Codec
    Format profile : [email protected]
    Format settings, CABAC : Yes
    Format settings, ReFrames : 2 frames
    Codec ID : avc1
    Codec ID/Info : Advanced Video Coding
    Duration : 54 min 18 s
    Duration_FirstFrame : -33 ms
    Bit rate : 2 783 kb/s
    Width : 1 920 pixels
    Height : 1 080 pixels
    Display aspect ratio : 16:9
    Frame rate mode : Variable
    Frame rate : 30.000 FPS
    Minimum frame rate : 30.000 FPS
    Maximum frame rate : 30.020 FPS
    Color space : YUV
    Chroma subsampling : 4:2:0
    Bit depth : 8 bits
    Scan type : Progressive
    Bits/(Pixel*Frame) : 0.045
    Stream size : 1.06 GiB (95%)
    Color range : Limited
    Color primaries : BT.709
    Transfer characteristics : BT.709
    Matrix coefficients : BT.709

    Audio
    ID : 2
    Format : AAC
    Format/Info : Advanced Audio Codec
    Format profile : LC
    Codec ID : 40
    Duration : 54 min 18 s
    Bit rate mode : Constant
    Bit rate : 126 kb/s
    Channel(s) : 2 channels
    Channel positions : Front: L R
    Sampling rate : 44.1 kHz
    Frame rate : 43.066 FPS (1024 spf)
    Compression mode : Lossy
    Stream size : 48.8 MiB (4%)
    Language : English

    Download Links:
    Hidden Content:
    You must reply before you can see the hidden data contained here.
    Ripped by me.
     
    rgf72k likes this.
  2. Loading...


  3. rgf72k

    rgf72k Founder Staff Member AdMiN Capper Uploader

    Joined:
    Oct 1, 2013
    Messages:
    1,140
    Likes Received:
    16,807
    Thanks a lot! :D
     
  4. marian

    marian Member

    Joined:
    Mar 19, 2017
    Messages:
    31
    Likes Received:
    1
  5. Arifillah

    Arifillah I LOVE SONG....

    Joined:
    Oct 29, 2017
    Messages:
    119
    Likes Received:
    6
  6. ron

    ron Well-Known Member

    Joined:
    Apr 4, 2014
    Messages:
    477
    Likes Received:
    314
    Thank you !
     
  7. EliasJDC

    EliasJDC New Member

    Joined:
    Nov 12, 2014
    Messages:
    29
    Likes Received:
    0
  8. martin98

    martin98 Member

    Joined:
    Nov 11, 2016
    Messages:
    292
    Likes Received:
    12
  9. gabrielalin145

    gabrielalin145 Member

    Joined:
    Jun 24, 2016
    Messages:
    211
    Likes Received:
    23