WEB-RiP Camila Cabello - Interview ~Camila [Album]~ - YouTube Live - 2018-01-12 (1080p) (Hyrus)

Discussion in 'Interviews / TV shows / Others' started by Hyrus, Jan 12, 2018.

  1. Hyrus

    Hyrus Arianator / Selenator / Victorian / Saxobeat / LBS Donor

    Joined:
    Feb 9, 2015
    Messages:
    1,456
    Likes Received:
    1,395
    I see this video has already been uploaded but this is my own rip and I've uploaded it to a different filehost; so it might be useful for people having issues downloading from MEGA due to bandwith limits.
    PS - I also included the auto-generated English subtitles in a .srt file.

    [​IMG]
    [​IMG]
    [​IMG]
    [​IMG]
    [​IMG]

    Thumbnails:
    [​IMG]
    Video
    ID : 1
    Format : AVC
    Format/Info : Advanced Video Codec
    Format profile : High@L4
    Format settings, CABAC : Yes
    Format settings, ReFrames : 2 frames
    Codec ID : avc1
    Codec ID/Info : Advanced Video Coding
    Duration : 54 min 18 s
    Duration_FirstFrame : -33 ms
    Bit rate : 2 783 kb/s
    Width : 1 920 pixels
    Height : 1 080 pixels
    Display aspect ratio : 16:9
    Frame rate mode : Variable
    Frame rate : 30.000 FPS
    Minimum frame rate : 30.000 FPS
    Maximum frame rate : 30.020 FPS
    Color space : YUV
    Chroma subsampling : 4:2:0
    Bit depth : 8 bits
    Scan type : Progressive
    Bits/(Pixel*Frame) : 0.045
    Stream size : 1.06 GiB (95%)
    Color range : Limited
    Color primaries : BT.709
    Transfer characteristics : BT.709
    Matrix coefficients : BT.709

    Audio
    ID : 2
    Format : AAC
    Format/Info : Advanced Audio Codec
    Format profile : LC
    Codec ID : 40
    Duration : 54 min 18 s
    Bit rate mode : Constant
    Bit rate : 126 kb/s
    Channel(s) : 2 channels
    Channel positions : Front: L R
    Sampling rate : 44.1 kHz
    Frame rate : 43.066 FPS (1024 spf)
    Compression mode : Lossy
    Stream size : 48.8 MiB (4%)
    Language : English

    Download Links:
    Hidden Content:
    You must reply before you can see the hidden data contained here.
    Ripped by me.
     
    rgf72k likes this.
  2. Loading...


  3. rgf72k

    rgf72k Founder Staff Member AdMiN Capper Uploader

    Joined:
    Oct 1, 2013
    Messages:
    1,224
    Likes Received:
    18,480
    Thanks a lot! :D
     
  4. marian

    marian Member

    Joined:
    Mar 19, 2017
    Messages:
    38
    Likes Received:
    1
    thanks
     
  5. Arifillah

    Arifillah [REQ]

    Joined:
    Oct 29, 2017
    Messages:
    1,003
    Likes Received:
    33
  6. ron

    ron Well-Known Member

    Joined:
    Apr 4, 2014
    Messages:
    603
    Likes Received:
    341
    Thank you !
     
  7. EliasJDC

    EliasJDC Member

    Joined:
    Nov 12, 2014
    Messages:
    33
    Likes Received:
    0
    thanks.
     
  8. martin98

    martin98 Member

    Joined:
    Nov 11, 2016
    Messages:
    396
    Likes Received:
    12
    thanks
     
  9. gabrielalin145

    gabrielalin145 Active Member

    Joined:
    Jun 24, 2016
    Messages:
    252
    Likes Received:
    25
  10. submariner9728

    submariner9728 Well-Known Member

    Joined:
    Dec 26, 2014
    Messages:
    1,139
    Likes Received:
    28
  11. bigray72

    bigray72 Member

    Joined:
    Jun 30, 2018
    Messages:
    131
    Likes Received:
    3
    thanks
     
  12. rcj

    rcj Active Member

    Joined:
    May 11, 2016
    Messages:
    770
    Likes Received:
    39
    tHANK u!
     
  13. lok111

    lok111 Active Member

    Joined:
    Jun 28, 2017
    Messages:
    123
    Likes Received:
    26
    tkssss
     
  14. moxxi69

    moxxi69 Member

    Joined:
    Jul 16, 2018
    Messages:
    375
    Likes Received:
    19
    Thanks so much!