WEB-RiP Camila Cabello - Documentary + Live Q&A - Made In Miami [YT Originals] - 2018-02-27 (1080p) (Hyrus)

Discussion in 'Documentaries' started by Hyrus, Feb 27, 2018.

  1. Hyrus

    Hyrus Arianator / Selenator / Victorian / Saxobeat / LBS Donor

    Joined:
    Feb 9, 2015
    Messages:
    1,403
    Likes Received:
    1,246
    [​IMG]
    [​IMG]
    [​IMG]
    [​IMG]
    [​IMG]
    [​IMG]
    [​IMG]

    Thumbnails:
    [​IMG]
    Video
    ID : 1
    Format : AVC
    Format/Info : Advanced Video Codec
    Format profile : High@L4
    Format settings, CABAC : Yes
    Format settings, ReFrames : 2 frames
    Codec ID : avc1
    Codec ID/Info : Advanced Video Coding
    Duration : 17 min 1 s
    Bit rate : 2 848 kb/s
    Width : 1 920 pixels
    Height : 1 080 pixels
    Display aspect ratio : 16:9
    Frame rate mode : Variable
    Frame rate : 23.976 (23976/1000) FPS
    Minimum frame rate : 23.974 FPS
    Maximum frame rate : 90 000.000 FPS
    Color space : YUV
    Chroma subsampling : 4:2:0
    Bit depth : 8 bits
    Scan type : Progressive
    Bits/(Pixel*Frame) : 0.057
    Stream size : 347 MiB (96%)
    Color range : Limited
    Color primaries : BT.709
    Transfer characteristics : BT.709
    Matrix coefficients : BT.709

    Audio
    ID : 2
    Format : AAC
    Format/Info : Advanced Audio Codec
    Format profile : LC
    Codec ID : 40
    Duration : 17 min 1 s
    Bit rate mode : Constant
    Bit rate : 126 kb/s
    Channel(s) : 2 channels
    Channel positions : Front: L R
    Sampling rate : 44.1 kHz
    Frame rate : 43.066 FPS (1024 spf)
    Compression mode : Lossy
    Stream size : 15.3 MiB (4%)

    [​IMG]
    Video
    ID : 1
    Format : AVC
    Format/Info : Advanced Video Codec
    Format profile : Baseline@L3
    Format settings, CABAC : No
    Format settings, ReFrames : 1 frame
    Codec ID : avc1
    Codec ID/Info : Advanced Video Coding
    Duration : 20 min 12 s
    Bit rate : 529 kb/s
    Maximum bit rate : 997 kb/s
    Width : 640 pixels
    Height : 360 pixels
    Display aspect ratio : 16:9
    Frame rate mode : Constant
    Frame rate : 30.000 FPS
    Color space : YUV
    Chroma subsampling : 4:2:0
    Bit depth : 8 bits
    Scan type : Progressive
    Bits/(Pixel*Frame) : 0.077
    Stream size : 76.5 MiB (88%)

    Audio
    ID : 2
    Format : AAC
    Format/Info : Advanced Audio Codec
    Format profile : LC
    Codec ID : 40
    Duration : 20 min 12 s
    Bit rate mode : Variable
    Bit rate : 72.0 kb/s
    Maximum bit rate : 76.2 kb/s
    Channel(s) : 1 channel
    Channel positions : Front: C
    Sampling rate : 44.1 kHz
    Frame rate : 43.066 FPS (1024 spf)
    Compression mode : Lossy
    Stream size : 10.4 MiB (12%)

    Download Links:
    Hidden Content:
    You must reply before you can see the hidden data contained here.
    Ripped by me.
     
  2. iametor

    iametor Member

    Joined:
    Oct 15, 2014
    Messages:
    93
    Likes Received:
    1
    thanks!!!
     
  3. withcap

    withcap Well-Known Member

    Joined:
    Oct 29, 2013
    Messages:
    1,993
    Likes Received:
    141
    Thanks for Camila!
     
  4. c4bellos

    c4bellos Member

    Joined:
    Mar 13, 2017
    Messages:
    44
    Likes Received:
    1
    thank you :))
     
  5. tilon

    tilon Member

    Joined:
    Oct 2, 2016
    Messages:
    244
    Likes Received:
    12
    thankss
     
  6. tilon

    tilon Member

    Joined:
    Oct 2, 2016
    Messages:
    244
    Likes Received:
    12
    THANKSSS
     
  7. nino.navy

    nino.navy Well-Known Member

    Joined:
    May 30, 2014
    Messages:
    2,679
    Likes Received:
    137
    thanks for camila :)
     
  8. Nito4k

    Nito4k Member

    Joined:
    Jan 12, 2018
    Messages:
    76
    Likes Received:
    0
    thanks
     
  9. Arifillah

    Arifillah [REQ]

    Joined:
    Oct 29, 2017
    Messages:
    808
    Likes Received:
    32
    thanks
     
  10. joelh20101

    joelh20101 Well-Known Member

    Joined:
    Nov 4, 2013
    Messages:
    1,511
    Likes Received:
    159
    thanks for this
     
  11. Bouncer

    Bouncer Member

    Joined:
    Jan 5, 2016
    Messages:
    523
    Likes Received:
    13
    tks tks
     
  12. Kyle

    Kyle Member

    Joined:
    Jan 23, 2014
    Messages:
    76
    Likes Received:
    1
    thank you
     
  13. martin98

    martin98 Member

    Joined:
    Nov 11, 2016
    Messages:
    374
    Likes Received:
    12
  14. Lucky

    Lucky Active Member

    Joined:
    Sep 26, 2016
    Messages:
    471
    Likes Received:
    41
    thanks
     
  15. yhnujm1

    yhnujm1 Member

    Joined:
    Jun 26, 2014
    Messages:
    365
    Likes Received:
    5
    thank you
     
  16. yoereyesr21

    yoereyesr21 Active Member

    Joined:
    Mar 12, 2016
    Messages:
    230
    Likes Received:
    31