Calvin Harris ft. Haim - Pray To God (Sony.HD.1080i.DD.5.1).-Crusha

Discussion in 'SONY' started by Crusha, Jun 24, 2015.

  1. Crusha

    Crusha Well-Known Member Capper

    Joined:
    Oct 15, 2014
    Messages:
    2,349
    Likes Received:
    2,078
    [​IMG]
    [​IMG]
    [​IMG]

    General
    ID : 1 (0x1)
    Complete name : Calvin Harris ft. Haim - Pray To God (Sony.HD.1080i.DD.5.1).-Crusha.ts
    Format : MPEG-TS
    File size : 91.6 MiB
    Duration : 4mn 5s
    Overall bit rate mode : Variable
    Overall bit rate : 3 134 Kbps

    Video
    ID : 2021 (0x7E5)
    Menu ID : 2842 (0xB1A)
    Format : AVC
    Format/Info : Advanced Video Codec
    Format profile : [email protected]
    Format settings, CABAC : Yes
    Format settings, ReFrames : 4 frames
    Codec ID : 27
    Duration : 4mn 4s
    Bit rate : 2 591 Kbps
    Width : 1 920 pixels
    Height : 1 080 pixels
    Display aspect ratio : 16:9
    Frame rate : 29.970 fps
    Standard : Component
    Color space : YUV
    Chroma subsampling : 4:2:0
    Bit depth : 8 bits
    Scan type : MBAFF
    Scan order : Top Field First
    Bits/(Pixel*Frame) : 0.042
    Stream size : 75.7 MiB (83%)
    Color primaries : BT.709
    Transfer characteristics : BT.709
    Matrix coefficients : BT.709
    Color range : Limited

    Audio
    ID : 3021 (0xBCD)
    Menu ID : 2842 (0xB1A)
    Format : AC-3
    Format/Info : Audio Coding 3
    Mode extension : CM (complete main)
    Format settings, Endianness : Big
    Codec ID : 6
    Duration : 4mn 4s
    Bit rate mode : Constant
    Bit rate : 384 Kbps
    Channel(s) : 6 channels
    Channel positions : Front: L C R, Side: L R, LFE
    Sampling rate : 48.0 KHz
    Bit depth : 16 bits
    Compression mode : Lossy
    Stream size : 11.2 MiB (12%)
    Language : English

    Hidden Content:
    You must either reply or click 'Like' to see the hidden information contained here.

    Password: crusha


    Cap by Me :p
     
    Last edited: Jul 2, 2015
  2. theskulled

    theskulled Member

    Joined:
    Sep 15, 2014
    Messages:
    230
    Likes Received:
    2
    thank u
     
  3. nolynexor88

    nolynexor88 Member

    Joined:
    Sep 29, 2015
    Messages:
    769
    Likes Received:
    23
     
  4. limonato

    limonato Member

    Joined:
    Dec 1, 2014
    Messages:
    159
    Likes Received:
    0
    thank you
     
  5. Zeeh

    Zeeh Member

    Joined:
    Mar 20, 2015
    Messages:
    327
    Likes Received:
    4
    Thank you
     
  6. anton

    anton Member

    Joined:
    May 24, 2016
    Messages:
    389
    Likes Received:
    7
    Thanks
     
  7. jayananda

    jayananda Member

    Joined:
    Jan 14, 2015
    Messages:
    248
    Likes Received:
    5
    Thank You
     
  8. anton

    anton Member

    Joined:
    May 24, 2016
    Messages:
    389
    Likes Received:
    7
    Thanks
     
  9. tapions

    tapions Active Member

    Joined:
    Aug 30, 2016
    Messages:
    749
    Likes Received:
    47
    gracias
     
  10. Encor388

    Encor388 Member

    Joined:
    Jul 2, 2016
    Messages:
    167
    Likes Received:
    2
  11. xavier777

    xavier777 Member

    Joined:
    Aug 29, 2016
    Messages:
    348
    Likes Received:
    21
    Thanks
     
  12. video60fps

    video60fps Member

    Joined:
    Nov 3, 2016
    Messages:
    63
    Likes Received:
    0
    hello