Calvin Harris & Disciples - How Deep Is Your Love (MTVHD-1080i-DD2.0-RGF72K)-HDMania

Discussion in 'MTV HD' started by RGF72K, Jan 20, 2016.

  1. RGF72K

    RGF72K ????? Staff Member Super Moderator

    Joined:
    Oct 1, 2013
    Messages:
    1,020
    Likes Received:
    14,118
    Calvin Harris & Disciples - How Deep Is Your Love (MTVHD-1080i-DD2.0-RGF72K)-HDMania

    [​IMG] [​IMG] [​IMG] [​IMG] [​IMG] [​IMG]

    General
    ID : 1 (0x1)
    Complete name : Calvin Harris & Disciples - How Deep Is Your Love (MTVHD-1080i-DD2.0-RGF72K)-HDMania.ts
    Format : MPEG-TS
    File size : 436 MiB
    Duration : 4mn 19s
    Overall bit rate mode : Variable
    Overall bit rate : 14.1 Mbps

    Video
    ID : 4113 (0x1011)
    Menu ID : 1 (0x1)
    Format : AVC
    Format/Info : Advanced Video Codec
    Format profile : Main@L4
    Format settings, CABAC : Yes
    Format settings, ReFrames : 4 frames
    Codec ID : 27
    Duration : 4mn 19s
    Bit rate mode : Variable
    Bit rate : 13.0 Mbps
    Maximum bit rate : 20.0 Mbps
    Width : 1 920 pixels
    Height : 1 080 pixels
    Display aspect ratio : 16:9
    Frame rate : 29.970 fps
    Color space : YUV
    Chroma subsampling : 4:2:0
    Bit depth : 8 bits
    Scan type : Interlaced
    Scan order : Top Field First
    Bits/(Pixel*Frame) : 0.209
    Stream size : 402 MiB (92%)
    Color range : Limited
    Color primaries : BT.709
    Transfer characteristics : BT.709
    Matrix coefficients : BT.709

    Audio
    ID : 4352 (0x1100)
    Menu ID : 1 (0x1)
    Format : AC-3
    Format/Info : Audio Coding 3
    Mode extension : CM (complete main)
    Format settings, Endianness : Big
    Codec ID : 129
    Duration : 4mn 19s
    Bit rate mode : Constant
    Bit rate : 384 Kbps
    Channel(s) : 2 channels
    Channel positions : Front: L R
    Sampling rate : 48.0 KHz
    Compression mode : Lossy
    Stream size : 11.9 MiB (3%)
    Language : English

    Hidden Content:
    You must either reply or click 'Like' to see the hidden information contained here.


    Note: Sorry, I forgot to add the name of the song in the file name, you can add it after download.
     
    facefalsorj, Dreamer, Crusha and 3 others like this.
  2. Loading...


  3. dgnio

    dgnio Well-Known Member

    Joined:
    Jul 7, 2014
    Messages:
    1,522
    Likes Received:
    292
    much aperciate
     
  4. 777josem

    777josem Well-Known Member Uploader

    Joined:
    Sep 1, 2014
    Messages:
    2,423
    Likes Received:
    1,293
    :happy:Thank you so much!
     
  5. rhea

    rhea Well-Known Member

    Joined:
    Jan 6, 2014
    Messages:
    5,258
    Likes Received:
    253
    thank you so much! :)
     
  6. Dreamer

    Dreamer ♫ It's Britney Bitch ♫ Capper Uploader

    Joined:
    Dec 4, 2014
    Messages:
    2,209
    Likes Received:
    1,924
    Thank you so much!
     
  7. tapions

    tapions Active Member

    Joined:
    Aug 30, 2016
    Messages:
    759
    Likes Received:
    50
    gracias
     
  8. Dinho Lima

    Dinho Lima New Member

    Joined:
    Nov 30, 2016
    Messages:
    24
    Likes Received:
    1
  9. rudy95

    rudy95 Member

    Joined:
    Dec 31, 2016
    Messages:
    81
    Likes Received:
    1
    Good job