Calvin Harris & Disciples - How Deep Is Your Love (BridgeHD-1080i-MP2-Olgold)-HDMania

Discussion in 'Bridge HD' started by Olgold, Oct 10, 2016.

  1. Olgold

    Olgold Well-Known Member Capper

    Joined:
    Aug 19, 2015
    Messages:
    436
    Likes Received:
    1,665
    Calvin Harris & Disciples - How Deep Is Your Love
    [​IMG]
    General
    Format : MPEG-TS
    File size : 156 MiB
    Duration : 3 min 41 s
    Overall bit rate mode : Variable
    Overall bit rate : 5 766 kb/s

    Video
    Format : AVC
    Format/Info : Advanced Video Codec
    Format profile : [email protected]
    Format settings, CABAC : Yes
    Format settings, ReFrames : 4 frames
    Duration : 3 min 40 s
    Bit rate : 5 288 kb/s
    Width : 1 920 pixels
    Height : 1 080 pixels
    Display aspect ratio : 16:9
    Frame rate : 25.000 FPS
    Standard : Component
    Color space : YUV
    Chroma subsampling : 4:2:0
    Bit depth : 8 bits
    Scan type : Interlaced
    Scan type, store method : Separated fields
    Scan order : Top Field First
    Bits/(Pixel*Frame) : 0.102
    Stream size : 139 MiB (89%)
    Color range : Limited

    Audio
    Format : MPEG Audio
    Format version : Version 1
    Format profile : Layer 2
    Duration : 3 min 42 s
    Bit rate mode : Constant
    Bit rate : 192 kb/s
    Channel(s) : 2 channels
    Sampling rate : 48.0 kHz
    Compression mode : Lossy
    Delay relative to video : -742 ms
    Stream size : 5.10 MiB (3%)
    Password: Olgold

    Hidden Content:
    You must reply before you can see the hidden data contained here.
     
    CELOBRAZiL and rhea like this.
  2. Loading...


  3. rhea

    rhea Well-Known Member

    Joined:
    Jan 6, 2014
    Messages:
    6,388
    Likes Received:
    607
    thank you so much
     
  4. CELOBRAZiL

    CELOBRAZiL Well-Known Member Capper V . I . P. Donor

    Joined:
    Oct 2, 2013
    Messages:
    3,454
    Likes Received:
    10,064
    Thank you so much! :)
     
  5. Flaxdevil

    Flaxdevil Member

    Joined:
    May 25, 2014
    Messages:
    285
    Likes Received:
    8
    Thanks
     
  6. revilo18

    revilo18 Well-Known Member

    Joined:
    May 26, 2016
    Messages:
    1,691
    Likes Received:
    78
    thankkkk
    thankkk
     
  7. grassion

    grassion New Member

    Joined:
    Jul 8, 2017
    Messages:
    18
    Likes Received:
    1
    thanks
     
  8. AngeloXXX

    AngeloXXX Member

    Joined:
    Jul 30, 2016
    Messages:
    54
    Likes Received:
    3
    thank you