Bruno Mars - 24K Magic (LPCM-Master-ProRes-1080p)

Discussion in 'PRORES' started by nitrocell, Nov 19, 2016.

  1. mtomarbarc

    mtomarbarc New Member

    Joined:
    Dec 16, 2016
    Messages:
    7
    Likes Received:
    0
  2. omxs

    omxs Member

    Joined:
    Nov 6, 2016
    Messages:
    52
    Likes Received:
    0
    Thanks
     
  3. dtx

    dtx New Member

    Joined:
    Jan 2, 2017
    Messages:
    1
    Likes Received:
    0
    real or not!!!???
     
  4. xavier777

    xavier777 Active Member

    Joined:
    Aug 29, 2016
    Messages:
    367
    Likes Received:
    28
    Thanks
     
  5. MerlinM

    MerlinM Active Member

    Joined:
    Apr 20, 2014
    Messages:
    206
    Likes Received:
    186
    It's not real. This video is a re-encode from a video with a lower bitrate. When you zoom the video frame by frame, you can the artefacts. :scorn:
     
  6. Pussy

    Pussy The Stoner MF of Love V . I . P.

    Joined:
    Feb 21, 2016
    Messages:
    788
    Likes Received:
    1,151
    The real ProRes have a bitrate of 164 Mbps with LPCM 2.0 24 bits.
    [​IMG]

    Complete name : Bruno Mars_24Kmagic_USWB484020J8R92011Y4 -Merleawe.mov
    Format : MPEG-4
    Format profile : QuickTime
    Codec ID : qt
    File size : 4.71 GiB
    Duration : 3mn 46s
    Overall bit rate mode : Variable
    Overall bit rate : 167 Mb/s
    Encoded date : UTC 2016-09-23 15:11:34
    Tagged date : UTC 2016-09-23 15:12:53
    Writing library : Apple QuickTime 7.7.8
    com.apple.quicktime.player. : (Binary)
    Media/UUID : 3G57I301-4455-49FG-A6CC-CG26A65E27F8

    Video
    ID : 4
    Format : ProRes
    Format version : Version 0
    Format profile : 422 HQ
    Codec ID : apch
    Duration : 3mn 46s
    Source Duration : 3mn 46s
    Bit rate mode : Variable
    Bit rate : 164 Mb/s
    Width : 1 920 pixels
    Height : 1 080 pixels
    Display aspect ratio : 16:9
    Frame rate mode : Constant
    Frame rate : 25.000 FPS
    Color space : YUV
    Chroma subsampling : 4:2:2
    Scan type : Progressive
    Bits/(Pixel*Frame) : 3.197
    Stream size : 4.64 GiB (99%)
    Source stream size : 4.64 GiB (99%)
    Writing library : Apple
    Language : English
    Encoded date : UTC 2016-09-23 15:11:34
    Tagged date : UTC 2016-09-23 15:12:53
    Matrix coefficients : BT.709

    Audio
    ID : 1
    Format : PCM
    Format settings, Endianness : Big
    Format settings, Sign : Signed
    Codec ID : in24
    Duration : 3mn 46s
    Bit rate mode : Constant
    Bit rate : 2 304 kb/s
    Channel(s) : 2 channels
    Channel positions : Front: L R
    Sampling rate : 48.0 kHz
    Bit depth : 24 bits
    Stream size : 62.2 MiB (1%)
    Language : English
    Encoded date : UTC 2016-09-23 15:11:34
    Tagged date : UTC 2016-09-23 15:12:53

    Text #1
    ID : 3-CC1
    Format : EIA-608
    Muxing mode : Final Cut / CDP
    Codec ID : c708
    Duration : 3mn 46s
    Bit rate mode : Constant
    Frame rate : 25.000 fps
    Stream size : 0.00 Byte (0%)
    Language : English
    Encoded date : UTC 2016-09-23 15:11:34
    Tagged date : UTC 2016-09-23 15:12:53

    Text #2
    ID : 3-1
    Format : EIA-608
    Muxing mode : Final Cut / CDP
    Codec ID : c708
    Duration : 3mn 46s
    Bit rate mode : Constant
    Frame rate : 25.000 fps
    Stream size : 0.00 Byte (0%)
    Language : English
    Encoded date : UTC 2016-09-23 15:11:34
    Tagged date : UTC 2016-09-23 15:12:53
     
    Last edited: Jan 14, 2017
  7. dmk001

    dmk001 New Member

    Joined:
    Jan 2, 2016
    Messages:
    17
    Likes Received:
    1
    thank you so much!
     
  8. stereo1991

    stereo1991 Member

    Joined:
    Oct 21, 2015
    Messages:
    149
    Likes Received:
    1
    Thank you!