Bruno Mars - 24K Magic (LPCM-Master-ProRes-1080p)

Discussion in 'PRORES' started by nitrocell, Nov 19, 2016.

  1. nitrocell

    nitrocell
    Administrator
    Staff Member AdMiN Capper

    Joined:
    Nov 18, 2013
    Messages:
    677
    Likes Received:
    4,635
    [​IMG]

    Code:
    General
    Complete name               : Bruno Mars - 24K Magic.mov
    Format                      : MPEG-4
    Format profile              : QuickTime
    Codec ID                    : qt   2005.03 (qt  )
    File size                   : 5.86 GiB
    Duration                    : 3 min
    Overall bit rate mode       : Variable
    Overall bit rate            : 213 Mb/s
    Encoded date                : UTC 2016-10-14 19:32:33
    Tagged date                 : UTC 2016-10-06 19:38:44
    Writing library             : Apple QuickTime
    ©TIM                        : 00;00;00;00
    ©TSC                        : 30000
    ©TSZ                        : 1001
    
    Video
    ID                          : 1
    Format                      : ProRes
    Format version              : Version 0
    Format profile              : 422 HQ
    Codec ID                    : apch
    Duration                    : 3 min
    Bit rate mode               : Variable
    Bit rate                    : 211 Mb/s
    Width                       : 1 920 pixels
    Height                      : 1 080 pixels
    Display aspect ratio        : 16:9
    Frame rate mode             : Constant
    Frame rate                  : 29.970 (30000/1001) FPS
    Color space                 : YUV
    Chroma subsampling          : 4:2:2
    Scan type                   : Interlaced
    Scan type, store method     : Interleaved fields
    Scan order                  : Top Field First
    Bits/(Pixel*Frame)          : 3.395
    Stream size                 : 5.82 GiB (99%)
    Writing library             : Apple
    Language                    : English
    Encoded date                : UTC 2016-10-14 19:32:33
    Tagged date                 : UTC 2016-10-14 19:32:33
    Color primaries             : BT.709
    Transfer characteristics    : BT.709
    Matrix coefficients         : BT.709
    
    Audio
    ID                          : 2
    Format                      : PCM
    Format settings, Endianness : Little
    Format settings, Sign       : Signed
    Codec ID                    : sowt
    Duration                    : 3 min
    Bit rate mode               : Constant
    Bit rate                    : 1 536 kb/s
    Channel(s)                  : 2 channels
    Channel positions           : Front: L R
    Sampling rate               : 48.0 kHz
    Bit depth                   : 16 bits
    Stream size                 : 43.4 MiB (1%)
    Language                    : English
    Encoded date                : UTC 2016-10-14 19:32:33
    Tagged date                 : UTC 2016-10-14 19:32:33
    
    Text
    ID                          : 3-CC1
    Format                      : EIA-608
    Muxing mode                 : Final Cut
    Codec ID                    : c608
    Duration                    : 3 min
    Source duration             : 3 min
    Bit rate mode               : Constant
    Stream size                 : 0.00 Byte (0%)
    Source stream size          : 38.0 KiB (0%)
    Language                    : English
    Forced                      : No
    Encoded date                : UTC 2016-10-14 19:32:33
    Tagged date                 : UTC 2016-10-14 19:32:33
    Source_Delay                : 7040
    Source_Delay_Source         : Container
    
    Other
    ID                          : 4
    Type                        : Time code
    Format                      : QuickTime TC
    Duration                    : 3 min
    Time code of first frame    : 00:00:00;00
    Time code, striped          : Yes
    Language                    : English
    Encoded date                : UTC 2016-10-14 19:32:33
    Tagged date                 : UTC 2016-10-14 19:32:33
    Hidden Content:
    You must either reply or click 'Like' to see the hidden information contained here.
     
    Dima24684, goul576, Romana and 35 others like this.
  2. thatonedread

    thatonedread Active Member

    Joined:
    May 4, 2016
    Messages:
    490
    Likes Received:
    31
    Many thanks for this video. Good job!!
     
  3. Dreamer

    Dreamer Lana Del Rey ♥ Capper V . I . P. Uploader

    Joined:
    Dec 4, 2014
    Messages:
    2,653
    Likes Received:
    3,180
    Thank you so much! :)
     
  4. MerlinM

    MerlinM Active Member

    Joined:
    Apr 20, 2014
    Messages:
    277
    Likes Received:
    239
    Thank you! :)
     
  5. guanche1985

    guanche1985 Member

    Joined:
    Nov 23, 2016
    Messages:
    297
    Likes Received:
    13
  6. toxic144

    toxic144 Well-Known Member Donor

    Joined:
    Sep 16, 2016
    Messages:
    368
    Likes Received:
    502
    WOW thanks
     
  7. moituananh

    moituananh New Member

    Joined:
    Dec 11, 2015
    Messages:
    25
    Likes Received:
    2
    WOW thanks
     
  8. multimediafm

    multimediafm Well-Known Member Donor

    Joined:
    Mar 27, 2014
    Messages:
    9,079
    Likes Received:
    417
  9. cedrique

    cedrique New Member

    Joined:
    Sep 7, 2016
    Messages:
    21
    Likes Received:
    0
    Thanks for this high quality one
     
  10. FlacoChileno

    FlacoChileno Member

    Joined:
    Jan 26, 2015
    Messages:
    386
    Likes Received:
    9
    Thank you! :)
     
  11. ivandario

    ivandario Member

    Joined:
    Jun 27, 2015
    Messages:
    155
    Likes Received:
    3
    Thank You!
     
  12. Guilhermejpc

    Guilhermejpc Member

    Joined:
    Oct 27, 2016
    Messages:
    289
    Likes Received:
    2
  13. larryxd

    larryxd New Member

    Joined:
    Jun 3, 2016
    Messages:
    20
    Likes Received:
    1
    Gracias :D
     
  14. crispicazzo

    crispicazzo Member

    Joined:
    Dec 19, 2015
    Messages:
    363
    Likes Received:
    21
    OMG thanks!
     
  15. lolo.amiens

    lolo.amiens Member

    Joined:
    Dec 30, 2014
    Messages:
    211
    Likes Received:
    2
  16. Zaitsev

    Zaitsev New Member

    Joined:
    Nov 28, 2016
    Messages:
    15
    Likes Received:
    0
    This is a random comment to unlock the hidden content.
     
  17. lastxdance

    lastxdance Member

    Joined:
    Dec 13, 2016
    Messages:
    268
    Likes Received:
    12
    Thank you!
     
  18. Pussy

    Pussy fuck off V . I . P. Uploader

    Joined:
    Feb 21, 2016
    Messages:
    1,021
    Likes Received:
    2,148
    Thanks.
     
  19. jiji777

    jiji777 New Member

    Joined:
    Oct 24, 2016
    Messages:
    28
    Likes Received:
    0
    thx man
     
  20. MerlinM

    MerlinM Active Member

    Joined:
    Apr 20, 2014
    Messages:
    277
    Likes Received:
    239
    This video is a fake ProRes file. :(