FEED Bruce Springsteen & The E Street Band - Rock in Rio Lisboa [May-19-2016] FEED 1080i MPA2.0 H.264 art

Discussion in 'HD Live Performances' started by CELOBRAZiL, Nov 29, 2020.

  1. CELOBRAZiL

    CELOBRAZiL Well-Known Member Capper V . I . P. Donor

    Joined:
    Oct 2, 2013
    Messages:
    9,699
    Likes Received:
    36,682
    Bruce Springsteen & The E Street Band - Rock in Rio Lisboa [May-19-2016] FEED 1080i MPA2.0 H.264 art-v-k-HDMania

    [​IMG]



    Format : MPEG-TS
    File size : 17.1 GiB
    Duration : 2 h 39 min
    Overall bit rate mode : Variable
    Overall bit rate : 15.4 Mb/s

    Video
    ID : 512 (0x200)
    Menu ID : 1 (0x1)
    Format : AVC
    Format/Info : Advanced Video Codec
    Format profile : Main@L4
    Format settings : CABAC / 4 Ref Frames
    Format settings, CABAC : Yes
    Format settings, Reference frames : 4 frames
    Format settings, GOP : M=3, N=15
    Codec ID : 27
    Duration : 2 h 39 min
    Bit rate mode : Variable
    Bit rate : 14.2 Mb/s
    Maximum bit rate : 14.5 Mb/s
    Width : 1 920 pixels
    Height : 1 080 pixels
    Display aspect ratio : 16:9
    Frame rate : 25.000 FPS
    Color space : YUV
    Chroma subsampling : 4:2:0
    Bit depth : 8 bits
    Scan type : Interlaced
    Scan type, store method : Separated fields
    Scan order : Top Field First
    Bits/(Pixel*Frame) : 0.274
    Stream size : 15.8 GiB (93%)
    Color range : Limited
    Color primaries : BT.709
    Transfer characteristics : BT.709
    Matrix coefficients : BT.709

    Audio
    ID : 4112 (0x1010)
    Menu ID : 1 (0x1)
    Format : MPEG Audio
    Format version : Version 1
    Format profile : Layer 2
    Format settings : Dual mono
    Codec ID : 3
    Duration : 2 h 39 min
    Bit rate mode : Constant
    Bit rate : 384 kb/s
    Channel(s) : 2 channels
    Sampling rate : 48.0 kHz
    Frame rate : 41.667 FPS (1152 SPF)
    Compression mode : Lossy
    Delay relative to video : 11 ms
    Stream size : 437 MiB (2%)
    Language : English
    Language, more info : Clean effects


    Link(s):
    Hidden Content:
    You must either reply or click 'Like' to see the hidden information contained here.
     
  2. Loading...


  3. CELOBRAZiL

    CELOBRAZiL Well-Known Member Capper V . I . P. Donor

    Joined:
    Oct 2, 2013
    Messages:
    9,699
    Likes Received:
    36,682
    :love::love::love:

    Added GOOGLE DRIVE link! :p
     
  4. eueu

    eueu Member

    Joined:
    Mar 13, 2016
    Messages:
    68
    Likes Received:
    19
    Obrigado!!!!!!! vc tem do queen tbm?
     
    CELOBRAZiL likes this.
  5. 1stb2s

    1stb2s Active Member

    Joined:
    Aug 24, 2019
    Messages:
    484
    Likes Received:
    30
    MANY THANKS FOR THE UP !!! GREAT PQ - RUNNING TiME OVER 160MiNS !!! OUTSTANDING LIVE CONCERT !!! :):love:
     
    CELOBRAZiL likes this.
  6. CELOBRAZiL

    CELOBRAZiL Well-Known Member Capper V . I . P. Donor

    Joined:
    Oct 2, 2013
    Messages:
    9,699
    Likes Received:
    36,682
    No, i don't have... :(
     
    eueu likes this.
  7. multimediafm

    multimediafm Well-Known Member Archiver Donor

    Joined:
    Mar 27, 2014
    Messages:
    19,152
    Likes Received:
    1,911
    Thanks:)
     
    CELOBRAZiL likes this.
  8. detroit1

    detroit1 Well-Known Member

    Joined:
    Jan 6, 2014
    Messages:
    4,502
    Likes Received:
    808
    thank you
     
    CELOBRAZiL likes this.
  9. BleedingMe

    BleedingMe Active Member

    Joined:
    Feb 13, 2017
    Messages:
    168
    Likes Received:
    25
    Thanks
     
    CELOBRAZiL likes this.