SDTV Britney Spears - x3 Perfomances (Today Show 2000) HQ

Discussion in 'SD Live Performances' started by hanshermann, May 14, 2018.

  1. hanshermann

    hanshermann Well-Known Member Uploader

    Joined:
    Aug 24, 2016
    Messages:
    7,738
    Likes Received:
    16,031
    [​IMG]

    BOMT (Today Show 2000)

    General
    Complete name : BOMT (Today Show) HQ.mov
    Format : MPEG-4
    Format profile : QuickTime
    Codec ID : qt 2005.03 (qt )
    File size : 417 MiB
    Duration : 4 min 5 s
    Overall bit rate mode : Variable
    Overall bit rate : 14.3 Mb/s
    Encoded date : UTC 2007-07-06 05:15:21
    Tagged date : UTC 2007-07-06 05:19:26
    Writing library : Apple QuickTime

    Video
    ID : 1
    Format : JPEG
    Codec ID : jpeg
    Duration : 4 min 5 s
    Bit rate mode : Variable
    Bit rate : 14.0 Mb/s
    Width : 720 pixels
    Height : 480 pixels
    Display aspect ratio : 3:2
    Frame rate mode : Constant
    Frame rate : 29.970 (29970/1000) FPS
    Standard : NTSC
    Color space : YUV
    Chroma subsampling : 4:2:0
    Bit depth : 8 bits
    Compression mode : Lossy
    Bits/(Pixel*Frame) : 1.353
    Stream size : 409 MiB (98%)
    Language : English
    Encoded date : UTC 2007-07-06 05:15:22
    Tagged date : UTC 2007-07-06 05:19:26

    Audio
    ID : 2
    Format : ADPCM
    Format settings, Firm : IMA
    Codec ID : ima4
    Duration : 4 min 5 s
    Bit rate mode : Constant
    Bit rate : 272 kb/s
    Channel(s) : 2 channels
    Channel positions : Front: L R
    Sampling rate : 32.0 kHz
    Bit depth : 16 bits
    Stream size : 7.94 MiB (2%)
    Language : English
    Encoded date : UTC 2007-07-06 05:15:22
    Tagged date : UTC 2007-07-06 05:19:26

    Other
    ID : 3
    Type : Time code
    Format : QuickTime TC
    Duration : 4 min 5 s
    Time code of first frame : 08:37:50;29
    Time code, striped : Yes
    Title : 0086AA7919
    Language : English
    Encoded date : UTC 2007-07-06 05:19:26
    Tagged date : UTC 2007-07-06 05:19:26

    Hidden Content:
    You must either reply or click 'Like' to see the hidden information contained here.
    [​IMG]

    Lucky (Today Show 2000)

    General
    Complete name : Lucky (Today Show) HQ.mov
    Format : MPEG-4
    Format profile : QuickTime
    Codec ID : qt 2005.03 (qt )
    File size : 362 MiB
    Duration : 3 min 36 s
    Overall bit rate mode : Variable
    Overall bit rate : 14.0 Mb/s
    Encoded date : UTC 2007-07-06 05:21:18
    Tagged date : UTC 2007-07-06 05:24:54
    Writing library : Apple QuickTime

    Video
    ID : 1
    Format : JPEG
    Codec ID : jpeg
    Duration : 3 min 36 s
    Bit rate mode : Variable
    Bit rate : 13.8 Mb/s
    Width : 720 pixels
    Height : 480 pixels
    Display aspect ratio : 3:2
    Frame rate mode : Constant
    Frame rate : 29.970 (29970/1000) FPS
    Standard : NTSC
    Color space : YUV
    Chroma subsampling : 4:2:0
    Bit depth : 8 bits
    Compression mode : Lossy
    Bits/(Pixel*Frame) : 1.328
    Stream size : 355 MiB (98%)
    Language : English
    Encoded date : UTC 2007-07-06 05:21:18
    Tagged date : UTC 2007-07-06 05:24:54

    Audio
    ID : 2
    Format : ADPCM
    Format settings, Firm : IMA
    Codec ID : ima4
    Duration : 3 min 36 s
    Source duration : 3 min 36 s
    Bit rate mode : Constant
    Bit rate : 256 kb/s
    Channel(s) : 2 channels
    Channel positions : Front: L R
    Sampling rate : 32.0 kHz
    Bit depth : 16 bits
    Stream size : 6.60 MiB (2%)
    Source stream size : 7.01 MiB (2%)
    Language : English
    Encoded date : UTC 2007-07-06 05:21:19
    Tagged date : UTC 2007-07-06 05:24:54

    Other
    ID : 3
    Type : Time code
    Format : QuickTime TC
    Duration : 3 min 36 s
    Time code of first frame : 08:44:20;28
    Time code, striped : Yes
    Title : 0086AA7919
    Language : English
    Encoded date : UTC 2007-07-06 05:24:54
    Tagged date : UTC 2007-07-06 05:24:54

    Hidden Content:
    You must either reply or click 'Like' to see the hidden information contained here.
    [​IMG]

    OIDIA (Today Show 2000)

    General
    Complete name : OIDIA (Today Show) HQ.mov
    Format : MPEG-4
    Format profile : QuickTime
    Codec ID : qt 2005.03 (qt )
    File size : 404 MiB
    Duration : 3 min 51 s
    Overall bit rate mode : Variable
    Overall bit rate : 14.6 Mb/s
    Encoded date : UTC 2007-07-06 05:24:54
    Tagged date : UTC 2007-07-06 05:28:41
    Writing library : Apple QuickTime

    Video
    ID : 1
    Format : JPEG
    Codec ID : jpeg
    Duration : 3 min 51 s
    Bit rate mode : Variable
    Bit rate : 14.3 Mb/s
    Width : 720 pixels
    Height : 480 pixels
    Display aspect ratio : 3:2
    Frame rate mode : Constant
    Frame rate : 29.970 (29970/1000) FPS
    Standard : NTSC
    Color space : YUV
    Chroma subsampling : 4:2:0
    Bit depth : 8 bits
    Compression mode : Lossy
    Bits/(Pixel*Frame) : 1.385
    Stream size : 397 MiB (98%)
    Language : English
    Encoded date : UTC 2007-07-06 05:24:54
    Tagged date : UTC 2007-07-06 05:28:41

    Audio
    ID : 2
    Format : ADPCM
    Format settings, Firm : IMA
    Codec ID : ima4
    Duration : 3 min 51 s
    Source duration : 3 min 51 s
    Bit rate mode : Constant
    Bit rate : 256 kb/s
    Channel(s) : 2 channels
    Channel positions : Front: L R
    Sampling rate : 32.0 kHz
    Bit depth : 16 bits
    Stream size : 7.08 MiB (2%)
    Source stream size : 7.52 MiB (2%)
    Language : English
    Encoded date : UTC 2007-07-06 05:24:55
    Tagged date : UTC 2007-07-06 05:28:41

    Other
    ID : 3
    Type : Time code
    Format : QuickTime TC
    Duration : 3 min 51 s
    Time code of first frame : 08:50:38;20
    Time code, striped : Yes
    Title : 0086AA7919
    Language : English
    Encoded date : UTC 2007-07-06 05:28:41
    Tagged date : UTC 2007-07-06 05:28:41

    Hidden Content:
    You must either reply or click 'Like' to see the hidden information contained here.
     
  2. Loading...


  3. logrono

    logrono Well-Known Member

    Joined:
    Mar 8, 2017
    Messages:
    1,985
    Likes Received:
    2,046
    Excellent post
     
  4. aturner18

    aturner18 Well-Known Member

    Joined:
    Oct 2, 2014
    Messages:
    1,741
    Likes Received:
    164
    thank u were are u finding these ?
    Cam u find Oprah 2002 Full HQ also Makng the videos & Total Britney i have britney experts n its so pixlated
     
  5. orionN

    orionN Well-Known Member

    Joined:
    Jan 26, 2018
    Messages:
    1,061
    Likes Received:
    56
    thanksss
     
  6. pedrospear

    pedrospear Active Member

    Joined:
    Aug 21, 2016
    Messages:
    453
    Likes Received:
    49
    thanks
     
  7. toonbbv

    toonbbv Well-Known Member

    Joined:
    Dec 11, 2013
    Messages:
    2,364
    Likes Received:
    118
    thank you
     
  8. BlankFormatted

    BlankFormatted Member

    Joined:
    Nov 18, 2015
    Messages:
    320
    Likes Received:
    7
  9. salvachos

    salvachos Active Member

    Joined:
    Mar 16, 2015
    Messages:
    888
    Likes Received:
    64
  10. brunolima284

    brunolima284 Active Member

    Joined:
    May 13, 2017
    Messages:
    521
    Likes Received:
    26
    obrigado.
     
  11. lighta

    lighta New Member

    Joined:
    May 9, 2018
    Messages:
    16
    Likes Received:
    0
    thanks
     
  12. CezarPE

    CezarPE Active Member

    Joined:
    Apr 19, 2017
    Messages:
    250
    Likes Received:
    26
    thanks for this
     
  13. jojo335

    jojo335 Member

    Joined:
    Jan 18, 2017
    Messages:
    343
    Likes Received:
    16
    thanks!
     
  14. multimediafm

    multimediafm Well-Known Member Donor

    Joined:
    Mar 27, 2014
    Messages:
    14,440
    Likes Received:
    1,156
  15. bigray72

    bigray72 Member

    Joined:
    Jun 30, 2018
    Messages:
    275
    Likes Received:
    15
    Thanks
     
  16. bayram

    bayram Member

    Joined:
    Feb 9, 2014
    Messages:
    253
    Likes Received:
    13
    thanks
     
  17. silvio1996

    silvio1996 lotus

    Joined:
    Oct 16, 2016
    Messages:
    302
    Likes Received:
    38
    thank you
     
  18. fernanassis

    fernanassis Active Member

    Joined:
    Sep 8, 2014
    Messages:
    626
    Likes Received:
    45
  19. disneyrussianmusic

    disneyrussianmusic Well-Known Member

    Joined:
    Nov 9, 2015
    Messages:
    466
    Likes Received:
    333
  20. submariner9728

    submariner9728 Well-Known Member

    Joined:
    Dec 26, 2014
    Messages:
    1,312
    Likes Received:
    44
  21. JUNINHOSZ

    JUNINHOSZ Well-Known Member

    Joined:
    May 23, 2014
    Messages:
    2,425
    Likes Received:
    67
    thanks!