Britney Spears - Work Bitch (M6 Clips HD-1080i-DD5.1-art-v-k)-HDMania

Discussion in 'M6 HD' started by DETOX, Jan 21, 2016.

  1. DETOX

    DETOX Well-Known Member V . I . P. Uploader

    Joined:
    Feb 20, 2014
    Messages:
    2,788
    Likes Received:
    15,150
    [​IMG]
    Code:
    General
    ID                                       : 6 (0x6)
    Complete name                            : Britney Spears - Work Bitch (M6 Clips HD-1080i-DD5.1-art-v-k).ts
    Format                                   : MPEG-TS
    File size                                : 228 MiB
    Duration                                 : 3mn 45s
    Overall bit rate mode                    : Variable
    Overall bit rate                         : 8 484 Kbps
    
    Video
    ID                                       : 170 (0xAA)
    Menu ID                                  : 9330 (0x2472)
    Format                                   : AVC
    Format/Info                              : Advanced Video Codec
    Format profile                           : [email protected]
    Format settings, CABAC                   : Yes
    Format settings, ReFrames                : 4 frames
    Codec ID                                 : 27
    Duration                                 : 3mn 44s
    Bit rate                                 : 7 418 Kbps
    Width                                    : 1 920 pixels
    Height                                   : 1 080 pixels
    Display aspect ratio                     : 16:9
    Frame rate                               : 25.000 fps
    Color space                              : YUV
    Chroma subsampling                       : 4:2:0
    Bit depth                                : 8 bits
    Scan type                                : MBAFF
    Scan order                               : Top Field First
    Bits/(Pixel*Frame)                       : 0.143
    Stream size                              : 199 MiB (87%)
    Encryption                               : Seca Mediaguard 1/2
    Color range                              : Limited
    Color primaries                          : BT.709
    Transfer characteristics                 : BT.709
    Matrix coefficients                      : BT.709
    
    Audio #1
    ID                                       : 122 (0x7A)
    Menu ID                                  : 9330 (0x2472)
    Format                                   : AC-3
    Format/Info                              : Audio Coding 3
    Mode extension                           : CM (complete main)
    Format settings, Endianness              : Big
    Codec ID                                 : 6
    Duration                                 : 3mn 44s
    Bit rate mode                            : Constant
    Bit rate                                 : 384 Kbps
    Channel(s)                               : 6 channels
    Channel positions                        : Front: L C R, Side: L R, LFE
    Sampling rate                            : 48.0 KHz
    Bit depth                                : 16 bits
    Compression mode                         : Lossy
    Delay relative to video                  : 13ms
    Stream size                              : 10.3 MiB (5%)
    Language                                 : French
    Encryption                               : Seca Mediaguard 1/2
    
    Audio #2
    ID                                       : 123 (0x7B)
    Menu ID                                  : 9330 (0x2472)
    Format                                   : AC-3
    Format/Info                              : Audio Coding 3
    Format profile                           : Dolby Digital
    Mode extension                           : CM (complete main)
    Format settings, Endianness              : Big
    Codec ID                                 : 6
    Duration                                 : 3mn 44s
    Bit rate mode                            : Constant
    Bit rate                                 : 256 Kbps
    Channel(s)                               : 2 channels
    Channel positions                        : Front: L R
    Sampling rate                            : 48.0 KHz
    Bit depth                                : 16 bits
    Compression mode                         : Lossy
    Delay relative to video                  : 21ms
    Stream size                              : 6.86 MiB (3%)
    Language                                 : English
    Encryption                               : Seca Mediaguard 1/2
    Server: cloud.mail.ru
    Hidden Content:
    You must reply before you can see the hidden data contained here.
     
  2. Loading...


  3. rhea

    rhea Well-Known Member

    Joined:
    Jan 6, 2014
    Messages:
    5,406
    Likes Received:
    265
    thank you so much :)
     
  4. Zatimi

    Zatimi Active Member

    Joined:
    Aug 27, 2014
    Messages:
    604
    Likes Received:
    67
    thank you
     
  5. Axiles

    Axiles Member

    Joined:
    May 1, 2016
    Messages:
    158
    Likes Received:
    7
    thanks
     
  6. Luis Almeida

    Luis Almeida Member

    Joined:
    Feb 4, 2015
    Messages:
    325
    Likes Received:
    9
    thank you
     
  7. giddeon85

    giddeon85 Member

    Joined:
    Aug 5, 2016
    Messages:
    261
    Likes Received:
    9
    thanks!
     
  8. tapions

    tapions Active Member

    Joined:
    Aug 30, 2016
    Messages:
    769
    Likes Received:
    56
    gracias
     
  9. lex

    lex Member

    Joined:
    Jan 18, 2016
    Messages:
    177
    Likes Received:
    6
    thanks
     
  10. lucianomendess

    lucianomendess New Member

    Joined:
    May 31, 2016
    Messages:
    4
    Likes Received:
    0
  11. ShadowMG

    ShadowMG New Member

    Joined:
    Jun 30, 2016
    Messages:
    27
    Likes Received:
    1
    thank u vm
     
  12. eng.rodriguess

    eng.rodriguess Member

    Joined:
    Aug 11, 2016
    Messages:
    203
    Likes Received:
    17
    amazing
     
  13. camiloecubs

    camiloecubs New Member

    Joined:
    Jun 16, 2015
    Messages:
    24
    Likes Received:
    0
  14. henrikhoe

    henrikhoe New Member

    Joined:
    Dec 3, 2016
    Messages:
    26
    Likes Received:
    0
    awesome
     
  15. Regis

    Regis Well-Known Member

    Joined:
    Jul 14, 2015
    Messages:
    1,000
    Likes Received:
    25
    Obrigado
     
  16. kokomama

    kokomama Member

    Joined:
    Oct 15, 2015
    Messages:
    232
    Likes Received:
    3
    thanks
     
  17. richard1997

    richard1997 Member

    Joined:
    Jan 22, 2017
    Messages:
    146
    Likes Received:
    0