CC Britney Spears - Toxic (MHD-1080i-DD2.0-CtrlHD) [CC]

Discussion in 'MHD' started by Osh Şarif, Apr 6, 2014.

  1. rikylouis14

    rikylouis14 Well-Known Member

    Joined:
    Jun 27, 2016
    Messages:
    717
    Likes Received:
    406
    thanks!
     
  2. tapions

    tapions Active Member

    Joined:
    Aug 30, 2016
    Messages:
    882
    Likes Received:
    66
    gracias
     
  3. 3veronicas

    3veronicas Well-Known Member

    Joined:
    Aug 26, 2016
    Messages:
    1,190
    Likes Received:
    41
    Thanks!
     
  4. Luis Almeida

    Luis Almeida Active Member

    Joined:
    Feb 4, 2015
    Messages:
    404
    Likes Received:
    27
    please reupload
     
  5. bernakartal

    bernakartal New Member

    Joined:
    Aug 2, 2016
    Messages:
    24
    Likes Received:
    0
  6. Jorge Barrionuevo

    Jorge Barrionuevo Well-Known Member

    Joined:
    Jun 9, 2015
    Messages:
    1,203
    Likes Received:
    442
    Re-upload plz!
     
  7. fzgggfttg

    fzgggfttg Member

    Joined:
    Jun 18, 2016
    Messages:
    122
    Likes Received:
    1
    thxxxxxxxx
     
  8. CristianMatias

    CristianMatias HIGH DEFINITION

    Joined:
    Sep 17, 2016
    Messages:
    778
    Likes Received:
    21
    justin timberlake
     
  9. CristianMatias

    CristianMatias HIGH DEFINITION

    Joined:
    Sep 17, 2016
    Messages:
    778
    Likes Received:
    21
  10. bernakartal

    bernakartal New Member

    Joined:
    Aug 2, 2016
    Messages:
    24
    Likes Received:
    0
    links dead
     
  11. Rafal Andrys

    Rafal Andrys Member

    Joined:
    Mar 7, 2015
    Messages:
    62
    Likes Received:
    4
    thank you
     
  12. orangemetaphor

    orangemetaphor New Member

    Joined:
    Sep 22, 2016
    Messages:
    22
    Likes Received:
    0
  13. Tommyboy

    Tommyboy Member

    Joined:
    Oct 23, 2016
    Messages:
    628
    Likes Received:
    22
    Thanks
     
  14. muhafazakarkomunist

    muhafazakarkomunist New Member

    Joined:
    Jun 13, 2016
    Messages:
    20
    Likes Received:
    2
  15. Praveen867

    Praveen867 Member

    Joined:
    Nov 14, 2016
    Messages:
    529
    Likes Received:
    3
    TYYYYYYYYYYYYYYYYYYYY
     
  16. henrikhoe

    henrikhoe New Member

    Joined:
    Dec 3, 2016
    Messages:
    28
    Likes Received:
    0
    awesoime
     
  17. Regis

    Regis Well-Known Member

    Joined:
    Jul 14, 2015
    Messages:
    1,068
    Likes Received:
    26
    Obrigado
     
  18. arasu123

    arasu123 Member

    Joined:
    Aug 8, 2016
    Messages:
    439
    Likes Received:
    14
    asdsd
    [QUOTE="Osh Şghftgytrughj
    Overall bit rate : 19.0 Mbps
    Law rating : TV-PG

    Video
    ID : 2048 (0x800)
    Menu ID : 1 (0x1)
    Format : MPEG Video
    Format version : Version 2
    Format profile : [email protected]
    Format settings, BVOP : Yes
    Format settings, Matrix : Custom
    Format settings, GOP : Variable
    Codec ID : 2
    Duration : 3mn 30s
    Bit rate mode : Variable
    Bit rate : 17.7 Mbps
    Maximum bit rate : 38.8 Mbps
    Width : 1 920 pixels
    Height : 1 080 pixels
    Display aspect ratio : 16:9
    Frame rate : 29.970 fps
    Standard : Component
    Color space : YUV
    Chroma subsampling : 4:2:0
    Bit depth : 8 bits
    Scan type : Interlaced
    Scan order : Top Field First
    Compression mode : Lossy
    Bits/(Pixel*Frame) : 0.285
    Time code of first frame : 00:00:00:00
    Time code source : Group of pictures header
    Stream size : 445 MiB (93%)
    Color primaries : BT.709
    Transfer characteristics : BT.709
    Matrix coefficients : BT.709

    Audio
    ID : 2049 (0x801)
    Menu ID : 1 (0x1)
    Format : AC-3
    Format/Info : Audio Coding 3
    Mode extension : CM (complete main)
    Format settings, Endianness : Big
    Codec ID : 129
    Duration : 3mn 30s
    Bit rate mode : Constant
    Bit rate : 384 Kbps
    Channel(s) : 2 channels
    Channel positions : Front: L R
    Sampling rate : 48.0 KHz
    Bit depth : 16 bits
    Compression mode : Lossy
    Stream size : 9.66 MiB (2%)

    Text #1
    ID : 2048 (0x800)-CC1
    Menu ID : 1 (0x1)
    Format : EIA-608
    Muxing mode : A/53 / DTVCC Transport
    Muxing mode, more info : Muxed in Video #1
    Duration : 3mn 30s
    Bit rate mode : Constant
    Stream size : 0.00 Byte (0%)

    Text #2
    ID : 2048 (0x800)-1
    Menu ID : 1 (0x1)
    Format : EIA-708
    Muxing mode : A/53 / DTVCC Transport
    Muxing mode, more info : Muxed in Video #1
    Duration : 3mn 30s
    Bit rate mode : Constant
    Stream size : 0.00 Byte (0%)

    [​IMG]

    Download links ( No Password )
    ***Hidden content cannot be quoted.***[/QUOTE]
     
  19. lyana94

    lyana94 Well-Known Member

    Joined:
    Jul 5, 2017
    Messages:
    1,143
    Likes Received:
    30
    THANKS
     
  20. lyana94

    lyana94 Well-Known Member

    Joined:
    Jul 5, 2017
    Messages:
    1,143
    Likes Received:
    30
    THANKS