Britney Spears - Till The World Ends (Bluray 1080p)

Discussion in 'BLU-RAY & BD RIP' started by 777josem, Aug 26, 2015.

  1. 777josem

    777josem Well-Known Member Uploader

    Joined:
    Sep 1, 2014
    Messages:
    2,350
    Likes Received:
    1,256
    [​IMG]
    [​IMG]
    [​IMG]
    [​IMG]
    General
    ID : 0 (0x0)
    Complete name : E:\ACCESO\BritneySpears-Till The World Ends.m2ts
    Format : BDAV
    Format/Info : Blu-ray Video
    File size : 710 MiB
    Duration : 4mn 4s
    Overall bit rate mode : Variable
    Overall bit rate : 24.4 Mbps
    Maximum Overall bit rate : 48.0 Mbps

    Video
    ID : 4113 (0x1011)
    Menu ID : 1 (0x1)
    Format : AVC
    Format/Info : Advanced Video Codec
    Format profile : [email protected]
    Format settings, CABAC : Yes
    Format settings, ReFrames : 4 frames
    Codec ID : 27
    Duration : 4mn 4s
    Bit rate mode : Variable
    Bit rate : 18.8 Mbps
    Maximum bit rate : 37.0 Mbps
    Width : 1 920 pixels
    Height : 1 080 pixels
    Display aspect ratio : 16:9
    Frame rate : 23.976 fps
    Color space : YUV
    Chroma subsampling : 4:2:0
    Bit depth : 8 bits
    Scan type : Progressive
    Bits/(Pixel*Frame) : 0.378
    Stream size : 547 MiB (77%)

    Audio #1
    ID : 4352 (0x1100)
    Menu ID : 1 (0x1)
    Format : PCM
    Format settings, Endianness : Big
    Format settings, Sign : Signed
    Muxing mode : Blu-ray
    Codec ID : 128
    Duration : 4mn 4s
    Bit rate mode : Constant
    Bit rate : 1 536 Kbps
    Channel(s) : 2 channels
    Channel positions : Front: L R
    Sampling rate : 48.0 KHz
    Bit depth : 16 bits
    Stream size : 44.7 MiB (6%)

    Audio #2
    ID : 4353 (0x1101)
    Menu ID : 1 (0x1)
    Format : PCM
    Format settings, Endianness : Big
    Format settings, Sign : Signed
    Muxing mode : Blu-ray
    Codec ID : 128
    Duration : 4mn 4s
    Bit rate mode : Constant
    Bit rate : 1 536 Kbps
    Channel(s) : 2 channels
    Channel positions : Front: L R
    Sampling rate : 48.0 KHz
    Bit depth : 16 bits
    Stream size : 44.7 MiB (6%)

    Audio #3
    ID : 4354 (0x1102)
    Menu ID : 1 (0x1)
    Format : PCM
    Format settings, Endianness : Big
    Format settings, Sign : Signed
    Muxing mode : Blu-ray
    Codec ID : 128
    Duration : 4mn 4s
    Bit rate mode : Constant
    Bit rate : 1 536 Kbps
    Channel(s) : 2 channels
    Channel positions : Front: L R
    Sampling rate : 48.0 KHz
    Bit depth : 16 bits
    Stream size : 44.7 MiB (6%)
    Hidden Content:
    You must reply before you can see the hidden data contained here.
     
    Last edited: Aug 26, 2015
    alex likes this.
  2. Loading...


  3. benja

    benja Active Member

    Joined:
    Jan 8, 2014
    Messages:
    965
    Likes Received:
    53
    thank you
     
  4. abdi

    abdi Well-Known Member Uploader

    Joined:
    Sep 23, 2014
    Messages:
    1,599
    Likes Received:
    2,582
     
  5. cristianfande1D

    cristianfande1D Member

    Joined:
    Feb 6, 2014
    Messages:
    151
    Likes Received:
    4
    gracias mucghasss
     
  6. DeadWalker

    DeadWalker New Member

    Joined:
    Dec 31, 2013
    Messages:
    11
    Likes Received:
    0
    thank you
     
  7. Josue Carminatti

    Josue Carminatti Member

    Joined:
    Jul 19, 2015
    Messages:
    251
    Likes Received:
    5
  8. Puchacz93

    Puchacz93 Well-Known Member

    Joined:
    Feb 4, 2015
    Messages:
    1,204
    Likes Received:
    639
    Thank you.
     
  9. SpyrosMonster

    SpyrosMonster Active Member

    Joined:
    Jan 27, 2014
    Messages:
    637
    Likes Received:
    95
    Thank you!
     
  10. daamxlaws

    daamxlaws Member

    Joined:
    Oct 24, 2014
    Messages:
    42
    Likes Received:
    3
    thank you!
     
  11. fisherTW

    fisherTW Well-Known Member

    Joined:
    Dec 3, 2014
    Messages:
    1,406
    Likes Received:
    159
    Thank you.:)
     
  12. furkan

    furkan Member

    Joined:
    Oct 9, 2015
    Messages:
    194
    Likes Received:
    3
    thnks youuu
     
  13. multimediafm

    multimediafm Well-Known Member Donor

    Joined:
    Mar 27, 2014
    Messages:
    8,067
    Likes Received:
    320
    Thanks :)
    Britney Spears - Till The World Ends (Bluray 1080p)
     
  14. Jenlicious

    Jenlicious Member

    Joined:
    Oct 19, 2015
    Messages:
    48
    Likes Received:
    3
    THANK YOU
     
  15. alifaxa

    alifaxa Member

    Joined:
    Oct 21, 2015
    Messages:
    321
    Likes Received:
    4
    Britney Spears
     
  16. stereo1991

    stereo1991 Member

    Joined:
    Oct 21, 2015
    Messages:
    103
    Likes Received:
    1
    thank you :victory:
     
  17. toriamc

    toriamc New Member

    Joined:
    Nov 10, 2015
    Messages:
    4
    Likes Received:
    0
    thank you
     
  18. plopplop

    plopplop Member

    Joined:
    Nov 1, 2015
    Messages:
    46
    Likes Received:
    3
    thank you
     
    Last edited by a moderator: Nov 11, 2015
  19. alex

    alex Well-Known Member

    Joined:
    Nov 21, 2013
    Messages:
    4,507
    Likes Received:
    333
    Thank you
     
  20. Dima24684

    Dima24684 Member

    Joined:
    Dec 20, 2015
    Messages:
    97
    Likes Received:
    3
    Thanks!!
     
  21. faz

    faz Member

    Joined:
    Jan 9, 2014
    Messages:
    196
    Likes Received:
    1
    thanks.......................