Britney Spears - Sometimes (MTVIDOL-1080i-DD2.0-Djodjara)-HDMania

Discussion in 'MTV IDOL' started by Djodjara, Jul 9, 2015.

  1. Djodjara

    Djodjara Gwen Fan Capper

    Joined:
    Sep 6, 2014
    Messages:
    634
    Likes Received:
    1,059
    Britney Spears - Sometimes (MTV Idol-1080i-Djodjara)-HDMania


    [​IMG]
    [​IMG]

    General:
    ID : 1 (0x1)
    Format : MPEG-TS
    File size : 161 MiB
    Duration : 3mn 50s
    Overall bit rate mode : Variable
    Overall bit rate : 5 869 Kbps

    Video:
    ID : 310 (0x136)
    Menu ID : 1 (0x1)
    Format : AVC
    Format/Info : Advanced Video Codec
    Format profile : [email protected]
    Format settings, CABAC : Yes
    Format settings, ReFrames : 4 frames
    Codec ID : 27
    Duration : 3mn 50s
    Bit rate : 5 385 Kbps
    Width : 1 920 pixels
    Height : 1 080 pixels
    Display aspect ratio : 16:9
    Frame rate : 25.000 fps
    Standard : Component
    Color space : YUV
    Chroma subsampling : 4:2:0
    Bit depth : 8 bits
    Scan type : MBAFF
    Scan order : Top Field First
    Bits/(Pixel*Frame) : 0.104
    Stream size : 148 MiB (92%)
    Color primaries : BT.709
    Transfer characteristics : BT.709
    Matrix coefficients : BT.709
    Color range : Limited

    Audio:
    ID : 321 (0x141)
    Menu ID : 1 (0x1)
    Format : AC-3
    Format/Info : Audio Coding 3
    Mode extension : CM (complete main)
    Format settings, Endianness : Big
    Codec ID : 6
    Duration : 3mn 50s
    Bit rate mode : Constant
    Bit rate : 192 Kbps
    Channel(s) : 2 channels
    Channel positions : Front: L R
    Sampling rate : 48.0 KHz
    Bit depth : 16 bits
    Compression mode : Lossy
    Stream size : 5.28 MiB (3%)
    Language : French

    Hidden Content:
    You must reply before you can see the hidden data contained here.
     
  2. Loading...


  3. Zatimi

    Zatimi Active Member

    Joined:
    Aug 27, 2014
    Messages:
    589
    Likes Received:
    57
    Thanks a million, been waiting for this, all time favorite :)
     
  4. Djodjara

    Djodjara Gwen Fan Capper

    Joined:
    Sep 6, 2014
    Messages:
    634
    Likes Received:
    1,059
    it's not that great quality, but it's a "must have" classic definitely :love:
     
  5. 777josem

    777josem Well-Known Member Uploader

    Joined:
    Sep 1, 2014
    Messages:
    2,347
    Likes Received:
    1,256
    :happy:Thank you so much, Djodjara
     
  6. Dreamer

    Dreamer ♫ It's Britney Bitch ♫ Capper Uploader

    Joined:
    Dec 4, 2014
    Messages:
    2,138
    Likes Received:
    1,806
    OMG. Thank you so much.
     
  7. DETOX

    DETOX Well-Known Member V . I . P. Uploader

    Joined:
    Feb 20, 2014
    Messages:
    2,604
    Likes Received:
    12,284
    Thank you so much! :victory:
     
  8. Luis Almeida

    Luis Almeida Member

    Joined:
    Feb 4, 2015
    Messages:
    295
    Likes Received:
    7
    Thank you!!
     
  9. MaggieS

    MaggieS Active Member

    Joined:
    Sep 19, 2014
    Messages:
    922
    Likes Received:
    33
    oh my God:pi cant believe:nothing to say:thanks:lol:
     
  10. rhea

    rhea Well-Known Member

    Joined:
    Jan 6, 2014
    Messages:
    5,193
    Likes Received:
    250
    thank you so much :)
     
  11. Joseph

    Joseph Active Member

    Joined:
    Dec 10, 2013
    Messages:
    726
    Likes Received:
    144
    THANK YOU SO MUCH! :D
     
  12. BinhTVT

    BinhTVT Member

    Joined:
    Jun 30, 2015
    Messages:
    175
    Likes Received:
    3
    thank you very much
     
  13. HDMjuzik

    HDMjuzik Member

    Joined:
    Feb 4, 2015
    Messages:
    59
    Likes Received:
    2
    thank youuu :p
     
  14. Crusha

    Crusha Well-Known Member Capper

    Joined:
    Oct 15, 2014
    Messages:
    2,349
    Likes Received:
    2,074
    thank you
     
  15. lukierrywhere

    lukierrywhere Member

    Joined:
    May 1, 2015
    Messages:
    157
    Likes Received:
    1
  16. hungquocphan

    hungquocphan Member

    Joined:
    Nov 1, 2013
    Messages:
    433
    Likes Received:
    9
    thank for share
     
  17. 江雨燃双鱼

    江雨燃双鱼 Active Member

    Joined:
    Apr 5, 2014
    Messages:
    585
    Likes Received:
    34
    thank for share
     
  18. BritneyBitchx

    BritneyBitchx Member

    Joined:
    Mar 27, 2014
    Messages:
    50
    Likes Received:
    3
    Love you girl
     
  19. Himperios

    Himperios Member

    Joined:
    Oct 11, 2015
    Messages:
    282
    Likes Received:
    14
    good
     
  20. femmemonsters

    femmemonsters Member

    Joined:
    Oct 8, 2015
    Messages:
    303
    Likes Received:
    9
    finally yes!
     
  21. Jenlicious

    Jenlicious Member

    Joined:
    Oct 19, 2015
    Messages:
    48
    Likes Received:
    3
    THank you