Britney Spears - SNL 2000 - 2 Performances

Discussion in 'SD Live Performances' started by adam dark, Jan 24, 2015.

  1. adam dark

    adam dark Video Music Lover <3 V . I . P.

    Joined:
    Dec 5, 2013
    Messages:
    2,702
    Likes Received:
    5,903
    Britney Spears - SNL 2000 - 2 Performances

    Requested by: thankstome

    [​IMG]
    Code:
    General
    Complete name                  : britney spears - don't let me be the last to know (snl 2000).VOB
    Format                         : MPEG-PS
    File size                      : 157 MiB
    Duration                       : 4mn 19s
    Overall bit rate mode          : Variable
    Overall bit rate               : 5 081 Kbps
    
    Video
    ID                             : 224 (0xE0)
    Format                         : MPEG Video
    Format version                 : Version 2
    Format profile                 : Main@Main
    Format settings, BVOP          : Yes
    Format settings, Matrix        : Custom
    Format settings, GOP           : M=3, N=15
    Format settings, picture struc : Frame
    Duration                       : 4mn 19s
    Bit rate mode                  : Variable
    Bit rate                       : 4 788 Kbps
    Width                          : 720 pixels
    Height                         : 480 pixels
    Display aspect ratio           : 4:3
    Frame rate                     : 29.970 fps
    Standard                       : NTSC
    Color space                    : YUV
    Chroma subsampling             : 4:2:0
    Bit depth                      : 8 bits
    Scan type                      : Interlaced
    Scan order                     : Top Field First
    Compression mode               : Lossy
    Bits/(Pixel*Frame)             : 0.462
    Time code of first frame       : 09:39:19;10
    Time code source               : Group of pictures header
    GOP, Open/Closed               : Open
    Stream size                    : 148 MiB (94%)
    GOP, Open/Closed of first fram : Closed
    
    Audio
    ID                             : 189 (0xBD)-128 (0x80)
    Format                         : AC-3
    Format/Info                    : Audio Coding 3
    Mode extension                 : CM (complete main)
    Format settings, Endianness    : Big
    Muxing mode                    : DVD-Video
    Duration                       : 4mn 19s
    Bit rate mode                  : Constant
    Bit rate                       : 192 Kbps
    Channel(s)                     : 2 channels
    Channel positions              : Front: L R
    Sampling rate                  : 48.0 KHz
    Bit depth                      : 16 bits
    Compression mode               : Lossy
    Stream size                    : 5.93 MiB (4%)
    Hidden Content:
    You must either reply or click 'Like' to see the hidden information contained here.
    [​IMG]
    Code:
    General
    Complete name                  : britney spears - oops... I did it again (snl 2000).VOB
    Format                         : MPEG-PS
    File size                      : 154 MiB
    Duration                       : 4mn 5s
    Overall bit rate mode          : Variable
    Overall bit rate               : 5 253 Kbps
    
    Video
    ID                             : 224 (0xE0)
    Format                         : MPEG Video
    Format version                 : Version 2
    Format profile                 : Main@Main
    Format settings, BVOP          : Yes
    Format settings, Matrix        : Custom
    Format settings, GOP           : M=3, N=15
    Format settings, picture struc : Frame
    Duration                       : 4mn 5s
    Bit rate mode                  : Variable
    Bit rate                       : 4 957 Kbps
    Width                          : 720 pixels
    Height                         : 480 pixels
    Display aspect ratio           : 4:3
    Frame rate                     : 29.970 fps
    Standard                       : NTSC
    Color space                    : YUV
    Chroma subsampling             : 4:2:0
    Bit depth                      : 8 bits
    Scan type                      : Interlaced
    Scan order                     : Top Field First
    Compression mode               : Lossy
    Bits/(Pixel*Frame)             : 0.479
    Time code of first frame       : 09:29:23;10
    Time code source               : Group of pictures header
    GOP, Open/Closed               : Open
    Stream size                    : 145 MiB (94%)
    GOP, Open/Closed of first fram : Closed
    
    Audio
    ID                             : 189 (0xBD)-128 (0x80)
    Format                         : AC-3
    Format/Info                    : Audio Coding 3
    Mode extension                 : CM (complete main)
    Format settings, Endianness    : Big
    Muxing mode                    : DVD-Video
    Duration                       : 4mn 5s
    Bit rate mode                  : Constant
    Bit rate                       : 192 Kbps
    Channel(s)                     : 2 channels
    Channel positions              : Front: L R
    Sampling rate                  : 48.0 KHz
    Bit depth                      : 16 bits
    Compression mode               : Lossy
    Stream size                    : 5.62 MiB (4%)
    Hidden Content:
    You must either reply or click 'Like' to see the hidden information contained here.
    Ripped by me! :D
     
    bjellerud, drp5862, lucasgsq and 42 others like this.
  2. Loading...


  3. quake2

    quake2 Well-Known Member

    Joined:
    Oct 11, 2014
    Messages:
    1,791
    Likes Received:
    146
    k thx..
     
  4. fisherTW

    fisherTW Well-Known Member

    Joined:
    Dec 3, 2014
    Messages:
    1,835
    Likes Received:
    191
    Thank you.:)
     
  5. nightowl32

    nightowl32 Member

    Joined:
    Jun 7, 2014
    Messages:
    304
    Likes Received:
    15
    Thanks!!!
     
    bahare7373 likes this.
  6. vans

    vans Well-Known Member

    Joined:
    Dec 14, 2013
    Messages:
    227
    Likes Received:
    1,150
    OMG! Thanks!! :D
     
  7. nino.navy

    nino.navy Well-Known Member

    Joined:
    May 30, 2014
    Messages:
    3,399
    Likes Received:
    205
    thanks very much
     
  8. thankstome

    thankstome Well-Known Member

    Joined:
    Feb 6, 2014
    Messages:
    1,049
    Likes Received:
    1,416
    thanks again
     
  9. toonbbv

    toonbbv Well-Known Member

    Joined:
    Dec 11, 2013
    Messages:
    2,289
    Likes Received:
    108
    thank you
     
  10. adam dark

    adam dark Video Music Lover <3 V . I . P.

    Joined:
    Dec 5, 2013
    Messages:
    2,702
    Likes Received:
    5,903
    you're welcome guys, enjoy the videos!! :D
     
  11. Adriano Everton

    Adriano Everton Well-Known Member

    Joined:
    Aug 25, 2014
    Messages:
    1,800
    Likes Received:
    188
  12. barnabas11

    barnabas11 Member

    Joined:
    Jul 4, 2014
    Messages:
    277
    Likes Received:
    18
    Classic Brit.
     
  13. iqson

    iqson Active Member

    Joined:
    Dec 30, 2013
    Messages:
    216
    Likes Received:
    82
    Thank you
     
  14. adam dark

    adam dark Video Music Lover <3 V . I . P.

    Joined:
    Dec 5, 2013
    Messages:
    2,702
    Likes Received:
    5,903
    I'm glad you love it guys! :)
     
  15. paul

    paul Member

    Joined:
    Dec 29, 2013
    Messages:
    239
    Likes Received:
    7
    thank you
     
  16. MaggieS

    MaggieS Well-Known Member

    Joined:
    Sep 19, 2014
    Messages:
    1,168
    Likes Received:
    63
     
  17. Ank-hell

    Ank-hell nɪhɪl V . I . P.

    Joined:
    Dec 21, 2013
    Messages:
    1,492
    Likes Received:
    6,827
    V Tkhs
     
  18. J_Pablo

    J_Pablo Active Member

    Joined:
    Nov 27, 2013
    Messages:
    660
    Likes Received:
    212
    Thanks! I've never seen
     
  19. Rodrigo Izetti

    Rodrigo Izetti Active Member

    Joined:
    Sep 22, 2014
    Messages:
    784
    Likes Received:
    33
  20. BoogyWoogy

    BoogyWoogy Well-Known Member Donor

    Joined:
    Jan 9, 2014
    Messages:
    1,177
    Likes Received:
    6,984
    Thank you ! :)
     
  21. adam dark

    adam dark Video Music Lover <3 V . I . P.

    Joined:
    Dec 5, 2013
    Messages:
    2,702
    Likes Received:
    5,903
    Hope you like it , this is memorable is when Britney dances and sings at the same time :D