Britney Spears - Radar (M6 Music HD-1080i-DD2.0-art-v-k)-HDMania

Discussion in 'M6 HD' started by DETOX, Jan 21, 2016.

  1. DETOX

    DETOX Well-Known Member V . I . P. Uploader

    Joined:
    Feb 20, 2014
    Messages:
    2,604
    Likes Received:
    12,261
    [​IMG]
    Code:
    General
    ID                                       : 1102 (0x44E)
    Complete name                            : Britney Spears - Radar (M6 Music HD-1080i-DD2.0-art-v-k).ts
    Format                                   : MPEG-TS
    File size                                : 229 MiB
    Duration                                 : 3mn 40s
    Overall bit rate mode                    : Variable
    Overall bit rate                         : 8 730 Kbps
    
    Video
    ID                                       : 162 (0xA2)
    Menu ID                                  : 6503 (0x1967)
    Format                                   : AVC
    Format/Info                              : Advanced Video Codec
    Format profile                           : [email protected]
    Format settings, CABAC                   : Yes
    Format settings, ReFrames                : 4 frames
    Codec ID                                 : 27
    Duration                                 : 3mn 40s
    Bit rate                                 : 8 040 Kbps
    Width                                    : 1 920 pixels
    Height                                   : 1 080 pixels
    Display aspect ratio                     : 16:9
    Frame rate                               : 25.000 fps
    Color space                              : YUV
    Chroma subsampling                       : 4:2:0
    Bit depth                                : 8 bits
    Scan type                                : MBAFF
    Scan order                               : Top Field First
    Bits/(Pixel*Frame)                       : 0.155
    Stream size                              : 211 MiB (92%)
    Encryption                               : Seca Mediaguard 1/2
    Color range                              : Limited
    Color primaries                          : BT.709
    Transfer characteristics                 : BT.709
    Matrix coefficients                      : BT.709
    
    Audio
    ID                                       : 90 (0x5A)
    Menu ID                                  : 6503 (0x1967)
    Format                                   : AC-3
    Format/Info                              : Audio Coding 3
    Format profile                           : Dolby Digital
    Mode extension                           : CM (complete main)
    Format settings, Endianness              : Big
    Codec ID                                 : 6
    Duration                                 : 3mn 40s
    Bit rate mode                            : Constant
    Bit rate                                 : 256 Kbps
    Channel(s)                               : 2 channels
    Channel positions                        : Front: L R
    Sampling rate                            : 48.0 KHz
    Bit depth                                : 16 bits
    Compression mode                         : Lossy
    Delay relative to video                  : 22ms
    Stream size                              : 6.72 MiB (3%)
    Language                                 : French
    Encryption                               : Seca Mediaguard 1/2
    Server: cloud.mail.ru
    Hidden Content:
    You must reply before you can see the hidden data contained here.
     
  2. Loading...


  3. rhea

    rhea Well-Known Member

    Joined:
    Jan 6, 2014
    Messages:
    5,193
    Likes Received:
    250
    thank you so much :)
     
  4. alex

    alex Well-Known Member

    Joined:
    Nov 21, 2013
    Messages:
    4,507
    Likes Received:
    332
    Thank you
     
  5. MaggieS

    MaggieS Active Member

    Joined:
    Sep 19, 2014
    Messages:
    922
    Likes Received:
    33
  6. umisea

    umisea Member

    Joined:
    Mar 14, 2014
    Messages:
    88
    Likes Received:
    2
    Thanks a lot
     
  7. Zatimi

    Zatimi Active Member

    Joined:
    Aug 27, 2014
    Messages:
    589
    Likes Received:
    57
    thanks a lot
     
  8. marlyvasconceles

    marlyvasconceles Member

    Joined:
    Sep 7, 2014
    Messages:
    243
    Likes Received:
    2
  9. tomastifler

    tomastifler Member

    Joined:
    Feb 19, 2016
    Messages:
    54
    Likes Received:
    1
    thankkks
     
  10. Schoder

    Schoder Member

    Joined:
    Jul 8, 2015
    Messages:
    146
    Likes Received:
    12
    thanks
     
  11. sori

    sori Member

    Joined:
    Oct 22, 2013
    Messages:
    106
    Likes Received:
    0
    thank you
     
  12. golftae

    golftae Active Member

    Joined:
    May 14, 2014
    Messages:
    522
    Likes Received:
    168
    Thank you
     
  13. Leonardo_1990

    Leonardo_1990 Member

    Joined:
    Nov 2, 2015
    Messages:
    102
    Likes Received:
    1
  14. cristianalexs96

    cristianalexs96 Member

    Joined:
    Mar 5, 2016
    Messages:
    40
    Likes Received:
    0
  15. nolynexor88

    nolynexor88 Member

    Joined:
    Sep 29, 2015
    Messages:
    768
    Likes Received:
    23
    thank you :)
     
  16. Axiles

    Axiles Member

    Joined:
    May 1, 2016
    Messages:
    153
    Likes Received:
    4
    thanks
     
  17. seregil

    seregil New Member

    Joined:
    Sep 5, 2014
    Messages:
    13
    Likes Received:
    0
    thanks
     
  18. wattjunior

    wattjunior Member

    Joined:
    Dec 10, 2015
    Messages:
    192
    Likes Received:
    2
  19. brunno314

    brunno314 Member

    Joined:
    Jul 2, 2016
    Messages:
    48
    Likes Received:
    0
    thank you
     
  20. Jrec

    Jrec Member

    Joined:
    May 11, 2016
    Messages:
    584
    Likes Received:
    22
    thanks
     
  21. Pedro Correia

    Pedro Correia Active Member

    Joined:
    Apr 17, 2014
    Messages:
    519
    Likes Received:
    46
    Thank you!