Britney Spears - Overprotected 1080p 60fps [RE-UP]

Discussion in 'Music Videos' started by hanshermann, Mar 1, 2018.

  1. hanshermann

    hanshermann Well-Known Member Uploader

    Joined:
    Aug 24, 2016
    Messages:
    7,581
    Likes Received:
    14,499
    [​IMG]
    Britney Spears - Overprotected 1080p 60fps

    Code:
    General
    Unique ID                   : 231186943906671360847770666621090425458 (0xADECFC5D8726DD7DA22CD8D922346A72)
    Complete name               : Britney Spears - Overprotected (2009) Full HD 1080p_60 fps.mkv
    Format                      : Matroska
    Format version              : Version 4 / Version 2
    File size                   : 601 MiB
    Duration                    : 3 min 55 s
    Overall bit rate mode       : Variable
    Overall bit rate            : 21.4 Mb/s
    Movie name                  : Britney Spears - Overprotected (2009) Full HD 1080p | 60 fps
    Encoded date                : UTC 2016-10-19 15:27:00
    Writing application         : mkvmerge v7.6.0 ('Garden of Dreams') 32bit built on Feb  8 2015 12:51:39
    Writing library             : libebml v1.3.1 + libmatroska v1.4.2
    Cover                       : Yes
    Attachments                 : Cover.png
    
    Video
    ID                          : 1
    Format                      : AVC
    Format/Info                 : Advanced Video Codec
    Format profile              : High@L4.2
    Format settings, CABAC      : Yes
    Format settings, ReFrames   : 3 frames
    Codec ID                    : V_MPEG4/ISO/AVC
    Duration                    : 3 min 55 s
    Bit rate mode               : Variable
    Bit rate                    : 20.0 Mb/s
    Width                       : 1 440 pixels
    Height                      : 1 080 pixels
    Display aspect ratio        : 4:3
    Frame rate mode             : Constant
    Frame rate                  : 59.940 (60000/1001) FPS
    Standard                    : PAL
    Color space                 : YUV
    Chroma subsampling          : 4:2:0
    Bit depth                   : 8 bits
    Scan type                   : Progressive
    Bits/(Pixel*Frame)          : 0.215
    Stream size                 : 561 MiB (93%)
    Title                       : www.60-fps.org
    Language                    : English
    Default                     : Yes
    Forced                      : No
    Color range                 : Limited
    Color primaries             : BT.709
    Transfer characteristics    : BT.709
    Matrix coefficients         : BT.709
    
    Audio
    ID                          : 2
    Format                      : DTS
    Format/Info                 : Digital Theater Systems
    Mode                        : 16
    Format settings, Endianness : Big
    Codec ID                    : A_DTS
    Duration                    : 3 min 55 s
    Bit rate mode               : Constant
    Bit rate                    : 1 413 kb/s
    Channel(s)                  : 2 channels
    Channel positions           : Front: L R
    Sampling rate               : 48.0 kHz
    Frame rate                  : 93.750 FPS (512 spf)
    Bit depth                   : 16 bits
    Compression mode            : Lossy
    Stream size                 : 39.7 MiB (7%)
    Default                     : Yes
    Forced                      : No
    
    
    Hidden Content:
    You must either reply or click 'Like' to see the hidden information contained here.
    Original Thread by @marco25
     
    Last edited: Apr 13, 2018
  2. Loading...


  3. quake2

    quake2 Well-Known Member

    Joined:
    Oct 11, 2014
    Messages:
    1,793
    Likes Received:
    146
    thanks
     
  4. toonbbv

    toonbbv Well-Known Member

    Joined:
    Dec 11, 2013
    Messages:
    2,289
    Likes Received:
    108
    THANK YOU
     
  5. tn5656

    tn5656 Well-Known Member

    Joined:
    Jan 20, 2017
    Messages:
    4,382
    Likes Received:
    155
    thanks a lot
     
  6. Tommyboy

    Tommyboy Well-Known Member

    Joined:
    Oct 23, 2016
    Messages:
    1,020
    Likes Received:
    37
    T.Hanks
     
  7. Mokeco

    Mokeco Member

    Joined:
    Jul 11, 2015
    Messages:
    440
    Likes Received:
    22
    Thanks
     
  8. allynat

    allynat Active Member

    Joined:
    Dec 25, 2017
    Messages:
    949
    Likes Received:
    34
    thanks a lot
     
  9. ryzhel007

    ryzhel007 Member

    Joined:
    Oct 22, 2016
    Messages:
    398
    Likes Received:
    8
    thanks alot
     
  10. ruslanonline

    ruslanonline britneyspearsmedia.ru

    Joined:
    May 6, 2017
    Messages:
    395
    Likes Received:
    558
    Thank you!
     
  11. josse

    josse Member

    Joined:
    Sep 12, 2016
    Messages:
    80
    Likes Received:
    3
    thank u
     
  12. fernandops15

    fernandops15 Member

    Joined:
    Oct 20, 2016
    Messages:
    111
    Likes Received:
    3
    chocadam,
     
  13. FelipeFada

    FelipeFada Member

    Joined:
    Mar 9, 2018
    Messages:
    60
    Likes Received:
    4
    Thanks <3
     
  14. carlos024333

    carlos024333 Active Member

    Joined:
    Mar 28, 2016
    Messages:
    807
    Likes Received:
    33
  15. visions.of.coleco

    visions.of.coleco New Member

    Joined:
    Mar 22, 2018
    Messages:
    18
    Likes Received:
    0
    fucking brilliant!!
     
  16. SAEED.SPEARS

    SAEED.SPEARS Member

    Joined:
    Dec 14, 2016
    Messages:
    176
    Likes Received:
    11
  17. knechtler15

    knechtler15 Member

    Joined:
    Jun 16, 2017
    Messages:
    247
    Likes Received:
    3
  18. submariner9728

    submariner9728 Well-Known Member

    Joined:
    Dec 26, 2014
    Messages:
    1,247
    Likes Received:
    34
  19. lyana94

    lyana94 Well-Known Member

    Joined:
    Jul 5, 2017
    Messages:
    1,567
    Likes Received:
    60
    SGDFHDGHFGH
     
  20. itzjakebitch

    itzjakebitch Member

    Joined:
    Jan 25, 2017
    Messages:
    245
    Likes Received:
    4
    thank you!
     
  21. shila

    shila Member

    Joined:
    Dec 3, 2013
    Messages:
    316
    Likes Received:
    18
    thanksssssss