WEB-RiP Britney Spears - Now And Then (Pepsi Generation)

Discussion in 'Interviews / TV shows / Others' started by alyssaprimp, Oct 28, 2016.

  1. alyssaprimp

    alyssaprimp Well-Known Member

    Joined:
    May 22, 2016
    Messages:
    258
    Likes Received:
    434
    Britney Spears - Now & Then (Pepsi Commercial)(AAC-VimeoEncoder-480p-H264)
    [​IMG]

    General
    Complete name : Britney Spears - Now & Then (Pepsi Commercial)(AAC-VimeoEncoder-480p-H264).mp4
    Format : MPEG-4
    Format profile : Base Media
    Codec ID : isom (isom/avc1)
    File size : 9.59 MiB
    Duration : 1 min
    Overall bit rate mode : Variable
    Overall bit rate : 870 kb/s
    Encoded date : UTC 2011-11-02 17:30:44
    Tagged date : UTC 2011-11-03 17:30:44

    Video
    ID : 1
    Format : AVC
    Format/Info : Advanced Video Codec
    Format profile : [email protected]
    Format settings, CABAC : Yes
    Format settings, ReFrames : 4 frames
    Codec ID : avc1
    Codec ID/Info : Advanced Video Coding
    Duration : 1 min
    Bit rate : 750 kb/s
    Maximum bit rate : 1 510 kb/s
    Width : 640 pixels
    Height : 424 pixels
    Display aspect ratio : 3:2
    Frame rate mode : Constant
    Frame rate : 29.970 (30000/1001) FPS
    Original frame rate : 29.970 (29970/1000) FPS
    Color space : YUV
    Chroma subsampling : 4:2:0
    Bit depth : 8 bits
    Scan type : Progressive
    Bits/(Pixel*Frame) : 0.092
    Stream size : 8.26 MiB (86%)
    Writing library : Vimeo Encoder
    Encoded date : UTC 2011-11-02 17:30:44
    Tagged date : UTC 2011-11-02 17:30:44

    Audio
    ID : 2
    Format : AAC
    Format/Info : Advanced Audio Codec
    Format profile : LC
    Codec ID : 40
    Duration : 1 min
    Bit rate mode : Variable
    Bit rate : 116 kb/s
    Maximum bit rate : 163 kb/s
    Channel(s) : 2 channels
    Channel positions : Front: L R
    Sampling rate : 44.1 kHz
    Frame rate : 43.066 FPS (1024 spf)
    Compression mode : Lossy
    Stream size : 1.28 MiB (13%)
    Encoded date : UTC 2011-11-02 17:30:44
    Tagged date : UTC 2011-11-02 17:30:44
    Hidden Content:
    You must either reply or click 'Like' to see the hidden information contained here.
     
    Last edited: Nov 11, 2016
  2. Loading...


  3. Danny82

    Danny82 Active Member

    Joined:
    May 28, 2016
    Messages:
    729
    Likes Received:
    47
    Thank for shared!
     
  4. Trop1cal

    Trop1cal Member

    Joined:
    Feb 5, 2015
    Messages:
    495
    Likes Received:
    10
    Thank you
     
  5. Pedro Correia

    Pedro Correia Active Member

    Joined:
    Apr 17, 2014
    Messages:
    518
    Likes Received:
    46
    Thank you so much!
     
  6. kedeydisc

    kedeydisc Member

    Joined:
    Nov 28, 2014
    Messages:
    48
    Likes Received:
    1
  7. pedrospear

    pedrospear Member

    Joined:
    Aug 21, 2016
    Messages:
    89
    Likes Received:
    10
    thanks
     
  8. Luis Almeida

    Luis Almeida Member

    Joined:
    Feb 4, 2015
    Messages:
    295
    Likes Received:
    7
    thank you
     
  9. thankstome

    thankstome Well-Known Member

    Joined:
    Feb 6, 2014
    Messages:
    756
    Likes Received:
    915
    Thank you very much
     
  10. Grande44

    Grande44 Member

    Joined:
    Jul 19, 2016
    Messages:
    102
    Likes Received:
    3
    thanks
     
  11. Ju55

    Ju55 Active Member

    Joined:
    Jul 10, 2015
    Messages:
    594
    Likes Received:
    102
    thanks
     
  12. marysea

    marysea Member

    Joined:
    Sep 13, 2016
    Messages:
    50
    Likes Received:
    3
    Thank you!
     
  13. nachostripped

    nachostripped Member

    Joined:
    Feb 5, 2015
    Messages:
    292
    Likes Received:
    5
    thank you
     
  14. peny20

    peny20 Active Member

    Joined:
    Oct 23, 2013
    Messages:
    1,320
    Likes Received:
    23
    Thank you
     
  15. Marcello

    Marcello Member

    Joined:
    Jun 12, 2016
    Messages:
    94
    Likes Received:
    6
    thanks so much
     
  16. kidtoy12

    kidtoy12 Member

    Joined:
    Mar 3, 2016
    Messages:
    107
    Likes Received:
    2
    thanks so much
     
  17. marcelwithluv

    marcelwithluv Member

    Joined:
    Sep 1, 2016
    Messages:
    67
    Likes Received:
    9
    than you
     
  18. Albertography

    Albertography Member

    Joined:
    Sep 6, 2016
    Messages:
    99
    Likes Received:
    10
    Thanks!
     
  19. vinniciusxux

    vinniciusxux Member

    Joined:
    Dec 20, 2015
    Messages:
    97
    Likes Received:
    15
    thanks
     
  20. Alvena

    Alvena Member

    Joined:
    Mar 25, 2014
    Messages:
    175
    Likes Received:
    7
    thanks:love:
     
  21. gayway

    gayway Active Member

    Joined:
    Mar 10, 2016
    Messages:
    737
    Likes Received:
    33
    Thank You!