Britney Spears - My Prerogative (VH1HD-1080i-DD5.1-CELOBRAZiL)

Discussion in 'VH1 HD' started by Snorom6, Jun 7, 2016.

  1. Snorom6

    Snorom6 Well-Known Member Uploader

    Joined:
    Dec 17, 2015
    Messages:
    4,245
    Likes Received:
    3,736
    Britney Spears - My Prerogative (VH1HD-1080i-DD5.1-CELOBRAZiL)


    [​IMG]


    Code:
    General
    ID                             : 1 (0x1)
    Complete name                  : Britney Spears - My Prerogative (VH1HD-1080i-DD5.1-CELOBRAZiL).ts
    Format                         : MPEG-TS
    File size                      : 187 MiB
    Duration                       : 3mn 46s
    Overall bit rate mode          : Variable
    Overall bit rate               : 6 943 Kbps
    
    Video
    ID                             : 5408 (0x1520)
    Menu ID                        : 1 (0x1)
    Format                         : AVC
    Format/Info                    : Advanced Video Codec
    Format profile                 : [email protected]
    Format settings, CABAC         : Yes
    Format settings, ReFrames      : 2 frames
    Codec ID                       : 27
    Duration                       : 3mn 46s
    Bit rate                       : 6 212 Kbps
    Width                          : 1 920 pixels
    Height                         : 1 080 pixels
    Display aspect ratio           : 16:9
    Frame rate                     : 29.970 fps
    Color space                    : YUV
    Chroma subsampling             : 4:2:0
    Bit depth                      : 8 bits
    Scan type                      : MBAFF
    Scan order                     : Top Field First
    Bits/(Pixel*Frame)             : 0.100
    Stream size                    : 168 MiB (89%)
    Color range                    : Limited
    Color primaries                : BT.709
    Transfer characteristics       : BT.709
    Matrix coefficients            : BT.709
    
    Audio
    ID                             : 5409 (0x1521)
    Menu ID                        : 1 (0x1)
    Format                         : AC-3
    Format/Info                    : Audio Coding 3
    Mode extension                 : CM (complete main)
    Format settings, Endianness    : Big
    Codec ID                       : 129
    Duration                       : 3mn 46s
    Bit rate mode                  : Constant
    Bit rate                       : 384 Kbps
    Channel(s)                     : 6 channels
    Channel positions              : Front: L C R, Side: L R, LFE
    Sampling rate                  : 48.0 KHz
    Compression mode               : Lossy
    Stream size                    : 10.4 MiB (6%)
    Language                       : English
    
    

    Hidden Content:
    You must either reply or click 'Like' to see the hidden information contained here.
    Hidden Content:
    You must either reply or click 'Like' to see the hidden information contained here.
     
  2. Loading...


  3. Clannadan

    Clannadan Member

    Joined:
    Jun 17, 2016
    Messages:
    135
    Likes Received:
    21
    thanks
     
    Snorom6 likes this.
  4. revilo18

    revilo18 Well-Known Member

    Joined:
    May 26, 2016
    Messages:
    1,310
    Likes Received:
    58
    THAJJJJ
     
    Snorom6 likes this.
  5. Grande44

    Grande44 Member

    Joined:
    Jul 19, 2016
    Messages:
    124
    Likes Received:
    3
    thank you! my fav mv
     
    Snorom6 likes this.
  6. giddeon85

    giddeon85 Member

    Joined:
    Aug 5, 2016
    Messages:
    261
    Likes Received:
    9
    Thanks!
     
    Snorom6 likes this.
  7. Axiles

    Axiles Member

    Joined:
    May 1, 2016
    Messages:
    158
    Likes Received:
    7
    thanks
     
    Snorom6 likes this.
  8. Johan Pinzon

    Johan Pinzon Member

    Joined:
    Aug 15, 2016
    Messages:
    294
    Likes Received:
    11
    THANKS
     
    Snorom6 likes this.
  9. Johan Pinzon

    Johan Pinzon Member

    Joined:
    Aug 15, 2016
    Messages:
    294
    Likes Received:
    11
    thnaks
     
    Snorom6 likes this.
  10. Jrec

    Jrec Member

    Joined:
    May 11, 2016
    Messages:
    616
    Likes Received:
    23
    thanks
     
    Snorom6 likes this.
  11. BeatleBoy

    BeatleBoy Member

    Joined:
    Jul 4, 2014
    Messages:
    194
    Likes Received:
    4
    Thank you
     
    Snorom6 likes this.
  12. fzgggfttg

    fzgggfttg Member

    Joined:
    Jun 18, 2016
    Messages:
    109
    Likes Received:
    1
    thhhhhhhhhx
     
    Snorom6 likes this.
  13. Jorge Barrionuevo

    Jorge Barrionuevo Well-Known Member

    Joined:
    Jun 9, 2015
    Messages:
    813
    Likes Received:
    269
    Muchas Gracias!
     
    Snorom6 likes this.
  14. Lucky

    Lucky Member

    Joined:
    Sep 26, 2016
    Messages:
    248
    Likes Received:
    12
    Thanks
     
    Snorom6 likes this.
  15. mirandabales

    mirandabales Member

    Joined:
    Sep 28, 2014
    Messages:
    151
    Likes Received:
    11
    thanks
     
    Snorom6 likes this.
  16. danicoteca

    danicoteca Member

    Joined:
    Sep 10, 2016
    Messages:
    160
    Likes Received:
    17
    :)....
     
    Snorom6 likes this.
  17. outrageous

    outrageous Member

    Joined:
    Oct 7, 2016
    Messages:
    40
    Likes Received:
    2
    Thank you
     
    Snorom6 likes this.
  18. nickasamiya

    nickasamiya Member

    Joined:
    Sep 25, 2016
    Messages:
    38
    Likes Received:
    8
    obrigado
     
    Snorom6 likes this.
  19. tenorio rodrigues

    tenorio rodrigues Member

    Joined:
    Oct 1, 2016
    Messages:
    42
    Likes Received:
    1
    thanks
     
    Snorom6 likes this.
  20. ShadowMG

    ShadowMG New Member

    Joined:
    Jun 30, 2016
    Messages:
    27
    Likes Received:
    1
    thankl you vm
     
    Snorom6 likes this.
  21. adi449

    adi449 Member

    Joined:
    Sep 25, 2016
    Messages:
    62
    Likes Received:
    4
    dziekuje
     
    Snorom6 likes this.