BDRiP Britney Spears - Live The Femme Fatale Tour 2011 BluRay 1080p x264 DTS-HDChina

Discussion in 'BLU-RAY' started by hanshermann, Sep 8, 2017.

  1. hanshermann

    hanshermann Well-Known Member Uploader

    Joined:
    Aug 24, 2016
    Messages:
    7,018
    Likes Received:
    11,684
    [​IMG]

    Britney Spears - Live The Femme Fatale Tour 2011 BluRay 1080p x264 DTS-HDChina

    Code:
    General
    Unique ID                   : 221170116421591329851013447969332234041 (0xA663D0A3F8845C89AC5801B51F0B8739)
    Complete name               : Britney.Spears.Live.The.Femme.Fatale.Tour.2011.BluRay.1080p.x264.DTS-HDChina.mkv
    Format                      : Matroska
    Format version              : Version 2
    File size                   : 12.0 GiB
    Duration                    : 1 h 25 min
    Overall bit rate            : 20.0 Mb/s
    Encoded date                : UTC 2011-11-25 17:50:46
    Writing application         : mkvmerge v4.0.0 ('The Stars were mine') built on Jun  6 2010 16:18:42
    Writing library             : libebml v1.0.0 + libmatroska v1.0.0
    
    Video
    ID                          : 1
    Format                      : AVC
    Format/Info                 : Advanced Video Codec
    Format profile              : High@L4.1
    Format settings, CABAC      : Yes
    Format settings, ReFrames   : 4 frames
    Codec ID                    : V_MPEG4/ISO/AVC
    Duration                    : 1 h 25 min
    Bit rate                    : 18.5 Mb/s
    Width                       : 1 920 pixels
    Height                      : 1 080 pixels
    Display aspect ratio        : 16:9
    Frame rate mode             : Constant
    Frame rate                  : 29.970 (30000/1001) FPS
    Color space                 : YUV
    Chroma subsampling          : 4:2:0
    Bit depth                   : 8 bits
    Scan type                   : Progressive
    Bits/(Pixel*Frame)          : 0.298
    Stream size                 : 10.9 GiB (90%)
    Writing library             : x264 core 116 r2074 2641b9e
    
    Default                     : No
    Forced                      : No
    
    Audio
    ID                          : 2
    Format                      : DTS
    Format/Info                 : Digital Theater Systems
    Mode                        : 16
    Format settings, Endianness : Big
    Codec ID                    : A_DTS
    Duration                    : 1 h 25 min
    Bit rate mode               : Constant
    Bit rate                    : 1 510 kb/s
    Channel(s)                  : 6 channels
    Channel positions           : Front: L C R, Side: L R, LFE
    Sampling rate               : 48.0 kHz
    Frame rate                  : 93.750 FPS (512 spf)
    Bit depth                   : 24 bits
    Compression mode            : Lossy
    Stream size                 : 928 MiB (8%)
    Language                    : English
    Default                     : Yes
    Forced                      : No
    Hidden Content:
    You must either reply or click 'Like' to see the hidden information contained here.
     
    Last edited: Jun 29, 2018
  2. Loading...

    Similar Threads
    1. marco25
      Replies:
      30
      Views:
      1,121

  3. marco25

    marco25 Well-Known Member

    Joined:
    Oct 5, 2016
    Messages:
    1,525
    Likes Received:
    753
    thanks
     
  4. pedrospear

    pedrospear Active Member

    Joined:
    Aug 21, 2016
    Messages:
    372
    Likes Received:
    44
    thanks
     
  5. Jon

    Jon Member

    Joined:
    Dec 1, 2014
    Messages:
    122
    Likes Received:
    11
    cool i love britney spears
     
  6. pedrospear

    pedrospear Active Member

    Joined:
    Aug 21, 2016
    Messages:
    372
    Likes Received:
    44
    thanks
     
  7. benja

    benja Well-Known Member

    Joined:
    Jan 8, 2014
    Messages:
    1,595
    Likes Received:
    103
    Thank you so much !!!
     
  8. Albertography

    Albertography Active Member

    Joined:
    Sep 6, 2016
    Messages:
    226
    Likes Received:
    40
    Thanks
     
  9. mizdot

    mizdot Well-Known Member

    Joined:
    Nov 13, 2014
    Messages:
    2,850
    Likes Received:
    121
    tnx man
     
  10. Mauricio Guitron Loria

    Mauricio Guitron Loria Member

    Joined:
    Dec 17, 2013
    Messages:
    119
    Likes Received:
    3
  11. pajpajpaj

    pajpajpaj Active Member

    Joined:
    Feb 11, 2017
    Messages:
    1,141
    Likes Received:
    13
    thankssss
     
  12. migsou

    migsou Member

    Joined:
    Oct 2, 2014
    Messages:
    516
    Likes Received:
    19
    thanx
     
  13. lim

    lim Well-Known Member

    Joined:
    Nov 8, 2013
    Messages:
    2,032
    Likes Received:
    76
    thank you
     
  14. exterminador

    exterminador Well-Known Member

    Joined:
    Jul 3, 2016
    Messages:
    2,443
    Likes Received:
    208
  15. anacarolsanchez

    anacarolsanchez Member

    Joined:
    Aug 30, 2017
    Messages:
    100
    Likes Received:
    22
    thank you!!!!!!!!
     
  16. stonecold1

    stonecold1 Active Member

    Joined:
    Jun 21, 2014
    Messages:
    306
    Likes Received:
    249
    thank you
     
  17. pinky

    pinky Well-Known Member

    Joined:
    Jun 27, 2015
    Messages:
    1,559
    Likes Received:
    54
    thank you :)
     
  18. Sidney

    Sidney Active Member

    Joined:
    Feb 8, 2017
    Messages:
    307
    Likes Received:
    26
    Thanks
     
  19. DopeHat

    DopeHat Active Member

    Joined:
    Sep 15, 2016
    Messages:
    354
    Likes Received:
    159
    thxxx
     
  20. jose luis

    jose luis Member

    Joined:
    Nov 25, 2013
    Messages:
    394
    Likes Received:
    21
    thanks ‚ô•
     
  21. Markonfire

    Markonfire Member

    Joined:
    Sep 29, 2016
    Messages:
    210
    Likes Received:
    11
    obrigado