HDTV Britney Spears - Jimmy Kimmel Live 2011-05-24 720p HDTV 17 Mbps DD5.1 MPEG2-TrollHD

Discussion in 'HD Live Performances' started by clublandtiger4, Jul 21, 2019.

  1. clublandtiger4

    clublandtiger4 The Pirate Princess

    Joined:
    Jun 8, 2019
    Messages:
    264
    Likes Received:
    708
    [​IMG]
    [​IMG] [​IMG]

    Code:
    Format                                   : MPEG-TS
    File size                                : 694 MiB
    Duration                                 : 5mn 25s
    Overall bit rate mode                    : Variable
    Overall bit rate                         : 17.9 Mbps
    Law rating                               : TV-14 (DL)
    
    Video
    ID                                       : 49 (0x31)
    Menu ID                                  : 1 (0x1)
    Format                                   : MPEG Video
    Commercial name                          : HDV 720p
    Format version                           : Version 2
    Format profile                           : Main@High
    Format settings, BVOP                    : Yes
    Format settings, Matrix                  : Custom
    Format settings, GOP                     : M=3, N=15
    Codec ID                                 : 2
    Duration                                 : 5mn 25s
    Bit rate mode                            : Variable
    Bit rate                                 : 16.6 Mbps
    Maximum bit rate                         : 17.1 Mbps
    Width                                    : 1 280 pixels
    Height                                   : 720 pixels
    Display aspect ratio                     : 16:9
    Frame rate                               : 59.940 (60000/1001) fps
    Color space                              : YUV
    Chroma subsampling                       : 4:2:0
    Bit depth                                : 8 bits
    Scan type                                : Progressive
    Compression mode                         : Lossy
    Bits/(Pixel*Frame)                       : 0.301
    Time code of first frame                 : 00:00:00;00
    Time code source                         : Group of pictures header
    GOP, Open/Closed                         : Open
    Stream size                              : 645 MiB (93%)
    
    Audio
    ID                                       : 52 (0x34)
    Menu ID                                  : 1 (0x1)
    Format                                   : AC-3
    Format/Info                              : Audio Coding 3
    Mode extension                           : CM (complete main)
    Format settings, Endianness              : Big
    Codec ID                                 : 129
    Duration                                 : 5mn 25s
    Bit rate mode                            : Constant
    Bit rate                                 : 384 Kbps
    Channel(s)                               : 6 channels
    Channel positions                        : Front: L C R, Side: L R, LFE
    Sampling rate                            : 48.0 KHz
    Frame rate                               : 31.250 fps (1536 spf)
    Compression mode                         : Lossy
    Delay relative to video                  : 25ms
    Stream size                              : 14.9 MiB (2%)
    Language                                 : English
    
    Text #1
    ID                                       : 49 (0x31)-CC1
    Menu ID                                  : 1 (0x1)
    Format                                   : EIA-608
    Muxing mode                              : A/53 / DTVCC Transport
    Muxing mode, more info                   : Muxed in Video #1
    Duration                                 : 5mn 25s
    Bit rate mode                            : Constant
    Stream size                              : 0.00 Byte (0%)
    
    Text #2
    ID                                       : 49 (0x31)-CC3
    Menu ID                                  : 1 (0x1)
    Format                                   : EIA-608
    Muxing mode                              : A/53 / DTVCC Transport
    Muxing mode, more info                   : Muxed in Video #1
    Duration                                 : 5mn 25s
    Bit rate mode                            : Constant
    Stream size                              : 0.00 Byte (0%)
    
    Text #3
    ID                                       : 49 (0x31)-1
    Menu ID                                  : 1 (0x1)
    Format                                   : EIA-708
    Muxing mode                              : A/53 / DTVCC Transport
    Muxing mode, more info                   : Muxed in Video #1
    Duration                                 : 5mn 25s
    Bit rate mode                            : Constant
    Stream size                              : 0.00 Byte (0%)
    
    Text #4
    ID                                       : 49 (0x31)-2
    Menu ID                                  : 1 (0x1)
    Format                                   : EIA-708
    Muxing mode                              : A/53 / DTVCC Transport
    Muxing mode, more info                   : Muxed in Video #1
    Duration                                 : 5mn 25s
    Bit rate mode                            : Constant
    Stream size                              : 0.00 Byte (0%)



    Download Server - Google Drive

    Hidden Content:
    You must reply before you can see the hidden data contained here.
    Back Up Link

    Hidden Content:
    You must reply before you can see the hidden data contained here.
     
  2. Loading...


  3. ThePixelFarm

    ThePixelFarm Livin' in a dream... Capper

    Joined:
    Aug 31, 2018
    Messages:
    1,472
    Likes Received:
    2,690
    Many thanks... (It's all go, here, isn't it...) :victory::super:
     
  4. Luis Almeida

    Luis Almeida Well-Known Member

    Joined:
    Feb 4, 2015
    Messages:
    1,619
    Likes Received:
    160
  5. Scherzyboy

    Scherzyboy Super Moderator Staff Member Super Moderator V . I . P. Uploader

    Joined:
    May 14, 2015
    Messages:
    1,315
    Likes Received:
    1,709
  6. RaufTex

    RaufTex Member

    Joined:
    Jun 24, 2017
    Messages:
    186
    Likes Received:
    1
    thanks
     
  7. pelusa91

    pelusa91 Member

    Joined:
    Aug 19, 2018
    Messages:
    137
    Likes Received:
    6
    thanks you
     
  8. dimrous22

    dimrous22 Well-Known Member

    Joined:
    Sep 11, 2016
    Messages:
    1,239
    Likes Received:
    141
    work bitch
     
  9. Thassyo

    Thassyo Well-Known Member

    Joined:
    Oct 9, 2013
    Messages:
    3,214
    Likes Received:
    1,446
    Thanks!
     
  10. Pedro Correia

    Pedro Correia Well-Known Member

    Joined:
    Apr 17, 2014
    Messages:
    2,050
    Likes Received:
    247
  11. 12wurzel

    12wurzel Active Member

    Joined:
    Oct 16, 2016
    Messages:
    773
    Likes Received:
    61
  12. MeAgainstTheMusic

    MeAgainstTheMusic Active Member

    Joined:
    Aug 27, 2016
    Messages:
    312
    Likes Received:
    40
  13. MusicFan21

    MusicFan21 Member

    Joined:
    Jun 21, 2016
    Messages:
    69
    Likes Received:
    6
  14. rhea

    rhea Well-Known Member

    Joined:
    Jan 6, 2014
    Messages:
    9,644
    Likes Received:
    1,657
    thank you
     
  15. Albertography

    Albertography Active Member

    Joined:
    Sep 6, 2016
    Messages:
    299
    Likes Received:
    65
    T
    Thanks!!
     
  16. Minotaur

    Minotaur Member

    Joined:
    Jun 9, 2019
    Messages:
    55
    Likes Received:
    1
  17. marco25

    marco25 Well-Known Member

    Joined:
    Oct 5, 2016
    Messages:
    1,838
    Likes Received:
    1,181
    thanks
     
  18. Biszczan

    Biszczan Member

    Joined:
    May 14, 2017
    Messages:
    165
    Likes Received:
    6
  19. mirandabales

    mirandabales Active Member

    Joined:
    Sep 28, 2014
    Messages:
    319
    Likes Received:
    29
  20. femmemonsters

    femmemonsters Well-Known Member

    Joined:
    Oct 8, 2015
    Messages:
    1,106
    Likes Received:
    56
  21. gisele155

    gisele155 Member

    Joined:
    Jun 18, 2018
    Messages:
    184
    Likes Received:
    5
    thank u