Britney Spears - I'm Not A Girl, Not Yet A Women (Upscale) 1080p

Discussion in 'UPSCALED' started by hanshermann, Jan 12, 2018 at 4:08 PM.

  1. hanshermann

    hanshermann Well-Known Member Uploader

    Joined:
    Aug 24, 2016
    Messages:
    5,222
    Likes Received:
    4,801
    [​IMG]

    Britney Spears - I'm Not A Girl, Not Yet A Women (Upscale) 1080p

    Code:
    General
    Unique ID                   : 201641880642386137849373198545169667640 (0x97B2D047E78175849F830AAC53CBD638)
    Complete name               : Britney Spears - I'm Not A Girl, Not Yet A Women  HD 1080.mkv
    Format                      : Matroska
    Format version              : Version 2
    File size                   : 957 MiB
    Duration                    : 3 min 49 s
    Overall bit rate            : 35.0 Mb/s
    Encoded date                : UTC 2016-01-02 09:00:55
    Writing application         : mkvmerge v8.5.2 ('Crosses') 32bit
    Writing library             : libebml v1.3.3 + libmatroska v1.4.4
    
    Video
    ID                          : 1
    Format                      : AVC
    Format/Info                 : Advanced Video Codec
    Format profile              : [email protected]
    Format settings, CABAC      : Yes
    Format settings, ReFrames   : 4 frames
    Codec ID                    : V_MPEG4/ISO/AVC
    Duration                    : 3 min 49 s
    Bit rate                    : 34.6 Mb/s
    Width                       : 1 440 pixels
    Height                      : 1 080 pixels
    Display aspect ratio        : 4:3
    Frame rate mode             : Constant
    Frame rate                  : 23.976 (24000/1001) FPS
    Color space                 : YUV
    Chroma subsampling          : 4:2:0
    Bit depth                   : 8 bits
    Scan type                   : Progressive
    Bits/(Pixel*Frame)          : 0.928
    Stream size                 : 947 MiB (99%)
    Writing library             : x264 core 148 r2638 7599210
    
    Default                     : Yes
    Forced                      : No
    
    Audio
    ID                          : 2
    Format                      : AC-3
    Format/Info                 : Audio Coding 3
    Format settings, Endianness : Big
    Codec ID                    : A_AC3
    Duration                    : 3 min 49 s
    Bit rate mode               : Constant
    Bit rate                    : 384 kb/s
    Channel(s)                  : 2 channels
    Channel positions           : Front: L R
    Sampling rate               : 48.0 kHz
    Frame rate                  : 31.250 FPS (1536 spf)
    Bit depth                   : 16 bits
    Compression mode            : Lossy
    Stream size                 : 10.5 MiB (1%)
    Service kind                : Complete Main
    Default                     : Yes
    Forced                      : No
    
    Hidden Content:
    You must either reply or click 'Like' to see the hidden information contained here.
     
    lim and cameltoe123 like this.
  2. Loading...


  3. Albertography

    Albertography Active Member

    Joined:
    Sep 6, 2016
    Messages:
    188
    Likes Received:
    33
    Thanks!
     
  4. cameltoe123

    cameltoe123 Active Member

    Joined:
    May 31, 2016
    Messages:
    465
    Likes Received:
    62
    th
    thanks
     
  5. golftae

    golftae Well-Known Member

    Joined:
    May 14, 2014
    Messages:
    1,124
    Likes Received:
    520
    Thank you
     
  6. MV007

    MV007 Member

    Joined:
    Aug 21, 2017
    Messages:
    42
    Likes Received:
    2
    thanks so much
     
  7. multimediafm

    multimediafm Well-Known Member Donor

    Joined:
    Mar 27, 2014
    Messages:
    11,011
    Likes Received:
    656
  8. Prizm2016Vas

    Prizm2016Vas Member

    Joined:
    Jul 9, 2016
    Messages:
    454
    Likes Received:
    12
  9. lim

    lim Well-Known Member

    Joined:
    Nov 8, 2013
    Messages:
    1,811
    Likes Received:
    34
  10. dinhotwain

    dinhotwain Active Member

    Joined:
    Jan 1, 2015
    Messages:
    730
    Likes Received:
    25
  11. quake2

    quake2 Well-Known Member

    Joined:
    Oct 11, 2014
    Messages:
    1,126
    Likes Received:
    68
  12. Sergiodegros

    Sergiodegros Member

    Joined:
    Mar 21, 2017
    Messages:
    387
    Likes Received:
    8