MASTER Britney Spears - I'm A Slave 4U [LPCM-NTSC-480p-H264] Master-Cdidi [RE-UP]

Discussion in 'MASTER & MASTER RIP' started by hanshermann, Mar 27, 2018.

  1. MeAgainstTheMusic

    MeAgainstTheMusic Member

    Joined:
    Aug 27, 2016
    Messages:
    218
    Likes Received:
    6
  2. alifaxa

    alifaxa Well-Known Member

    Joined:
    Oct 21, 2015
    Messages:
    2,363
    Likes Received:
    419
  3. Pedro Correia

    Pedro Correia Well-Known Member

    Joined:
    Apr 17, 2014
    Messages:
    1,441
    Likes Received:
    155
  4. Antony

    Antony Well-Known Member

    Joined:
    Nov 11, 2013
    Messages:
    1,276
    Likes Received:
    241
    thanks x
     
  5. SCJS

    SCJS New Member

    Joined:
    Jul 23, 2017
    Messages:
    12
    Likes Received:
    0
    favorite, thanks
     
  6. longhd111

    longhd111 Member

    Joined:
    Aug 5, 2018
    Messages:
    209
    Likes Received:
    5
  7. DON KING

    DON KING Active Member

    Joined:
    Dec 13, 2016
    Messages:
    939
    Likes Received:
    41
  8. ...hUgOp...

    ...hUgOp... Member

    Joined:
    Sep 30, 2016
    Messages:
    98
    Likes Received:
    8
    wowme encanto
     
  9. nicosmith

    nicosmith New Member

    Joined:
    Oct 31, 2018
    Messages:
    11
    Likes Received:
    2
    [gracias[​IMG]
    Britney Spears - I'm A Slave 4U [LPCM-NTSC-480p-H264] Master-Cdidi

    Code:
    General
    Complete name : Britney Spears - I'm A Slave 4U [LPCM-NTSC-480p-H264] -Cdidi.mov
    Format : MPEG-4
    Format profile : QuickTime
    Codec ID : qt 0000.02 (qt )
    File size : 563 MiB
    Duration : 3 min 24 s
    Overall bit rate : 23.0 Mb/s
    Writing application : Lavf56.15.102

    Video
    ID : 1
    Format : AVC
    Format/Info : Advanced Video Codec
    Format profile : High 4:4:4 Predictive@L4.1
    Format settings, CABAC : Yes
    Format settings, ReFrames : 3 frames
    Codec ID : avc1
    Codec ID/Info : Advanced Video Coding
    Duration : 3 min 24 s
    Bit rate : 21.5 Mb/s
    Width : 720 pixels
    Height : 480 pixels
    Display aspect ratio : 3:2
    Frame rate mode : Variable
    Frame rate : 23.976 (24000/1001) FPS
    Minimum frame rate : 23.786 FPS
    Maximum frame rate : 24.415 FPS
    Color space : YUV
    Chroma subsampling : 4:2:0
    Bit depth : 8 bits
    Scan type : Progressive
    Bits/(Pixel*Frame) : 2.596
    Stream size : 525 MiB (93%)
    Writing library : x264 core 120 r2164 da19765
    Encoding settings : cabac=1 / ref=3 / deblock=1:0:0 / analyse=0x3:0x113 / me=hex / subme=7 / psy=0 / mixed_ref=1 / me_range=16 / chroma_me=1 / trellis=0 / 8x8dct=1 / cqm=0 / deadzone=21,11 / fast_pskip=0 / chroma_qp_offset=0 / threads=3 / sliced_threads=0 / nr=0 / decimate=1 / interlaced=0 / bluray_compat=0 / constrained_intra=0 / bframes=0 / weightp=2 / keyint=240 / keyint_min=23 / scenecut=40 / intra_refresh=0 / rc=cqp / mbtree=0 / qp=0
    Language : English

    Audio
    ID : 2
    Format : PCM
    Format settings, Endianness : Little
    Format settings, Sign : Signed
    Codec ID : sowt
    Duration : 3 min 24 s
    Source duration : 3 min 24 s
    Bit rate mode : Constant
    Bit rate : 1 536 kb/s
    Channel(s) : 2 channels
    Channel positions : Front: L R
    Sampling rate : 48.0 kHz
    Bit depth : 16 bits
    Stream size : 37.5 MiB (7%)
    Source stream size : 37.5 MiB (7%)
    Language : English
    Default : Yes
    Alternate group : 1
    mdhd_Duration : 204782

    Hidden Content:
    You must either reply or click 'Like' to see the hidden information contained here.[/QUOTE]
     
  10. pedrospear

    pedrospear Active Member

    Joined:
    Aug 21, 2016
    Messages:
    403
    Likes Received:
    45
    [/QUOTE]
    thanks
     
  11. marco25

    marco25 Well-Known Member

    Joined:
    Oct 5, 2016
    Messages:
    1,610
    Likes Received:
    892
    thanks
     
  12. Victor Costa

    Victor Costa Active Member

    Joined:
    Sep 1, 2016
    Messages:
    405
    Likes Received:
    29