SDTV Britney Spears - I’m A Slave 4 U @ MTV Total Britney Live 576p

Discussion in 'SD Live Performances' started by hanshermann, May 8, 2018.

  1. hanshermann

    hanshermann Well-Known Member Uploader

    Joined:
    Aug 24, 2016
    Messages:
    7,683
    Likes Received:
    15,521
    [​IMG]

    Britney Spears - I’m A Slave 4 U @ MTV Total Britney Live 576p

    General
    Complete name : IAS4U (MTV TBL) 576P.mpg
    Format : MPEG-PS
    File size : 111 MiB
    Duration : 3 min 41 s
    Overall bit rate mode : Variable
    Overall bit rate : 4 209 kb/s

    Video
    ID : 224 (0xE0)
    Format : MPEG Video
    Format version : Version 2
    Format profile : Main@Main
    Format settings, BVOP : Yes
    Format settings, Matrix : Custom
    Format settings, GOP : M=2, N=12
    Format settings, picture st : Frame
    Duration : 3 min 41 s
    Bit rate mode : Variable
    Bit rate : 3 933 kb/s
    Width : 528 pixels
    Height : 576 pixels
    Display aspect ratio : 4:3
    Frame rate : 25.000 FPS
    Color space : YUV
    Chroma subsampling : 4:2:0
    Bit depth : 8 bits
    Scan type : Interlaced
    Scan order : Top Field First
    Compression mode : Lossy
    Bits/(Pixel*Frame) : 0.517
    Time code of first frame : 00:00:00:00
    Time code source : Group of pictures header
    GOP, Open/Closed : Open
    GOP, Open/Closed of first f : Closed
    Stream size : 104 MiB (93%)

    Audio
    ID : 192 (0xC0)
    Format : MPEG Audio
    Format version : Version 1
    Format profile : Layer 2
    Duration : 3 min 41 s
    Bit rate mode : Constant
    Bit rate : 192 kb/s
    Channel(s) : 2 channels
    Sampling rate : 48.0 kHz
    Compression mode : Lossy
    Stream size : 5.07 MiB (5%)

    Hidden Content:
    You must either reply or click 'Like' to see the hidden information contained here.
     
    Last edited: Jun 10, 2018
  2. Loading...


  3. alkaline80

    alkaline80 Member

    Joined:
    Jan 27, 2017
    Messages:
    103
    Likes Received:
    5
  4. kiiwii

    kiiwii Member

    Joined:
    Oct 10, 2013
    Messages:
    408
    Likes Received:
    12
    tks so much
     
  5. toonbbv

    toonbbv Well-Known Member

    Joined:
    Dec 11, 2013
    Messages:
    2,364
    Likes Received:
    118
    thnk you
     
  6. vikakotova

    vikakotova Member

    Joined:
    May 31, 2017
    Messages:
    162
    Likes Received:
    10
  7. rkgmade

    rkgmade Well-Known Member

    Joined:
    Sep 29, 2016
    Messages:
    1,967
    Likes Received:
    111
    tha
    nk you
     
  8. Luis Almeida

    Luis Almeida Well-Known Member

    Joined:
    Feb 4, 2015
    Messages:
    1,522
    Likes Received:
    110
    thank you
     
  9. multimediafm

    multimediafm Well-Known Member Donor

    Joined:
    Mar 27, 2014
    Messages:
    14,370
    Likes Received:
    1,148
  10. pedrospear

    pedrospear Active Member

    Joined:
    Aug 21, 2016
    Messages:
    438
    Likes Received:
    48
    thanks
     
  11. funhawg

    funhawg Member

    Joined:
    Jan 4, 2014
    Messages:
    244
    Likes Received:
    4
    thank you
     
  12. hguy3558

    hguy3558 Member

    Joined:
    May 20, 2016
    Messages:
    37
    Likes Received:
    3
    thank u
     
  13. dinhotwain

    dinhotwain Well-Known Member

    Joined:
    Jan 1, 2015
    Messages:
    1,616
    Likes Received:
    162
  14. andreamonger

    andreamonger Well-Known Member

    Joined:
    May 16, 2015
    Messages:
    1,440
    Likes Received:
    242
    wow i love it
     
  15. jerrmx

    jerrmx Well-Known Member

    Joined:
    Sep 8, 2016
    Messages:
    1,021
    Likes Received:
    69
    thanks
     
  16. miguelon.1982

    miguelon.1982 Member

    Joined:
    Sep 21, 2016
    Messages:
    155
    Likes Received:
    8
  17. Rorschach95

    Rorschach95 Member

    Joined:
    Jun 12, 2016
    Messages:
    252
    Likes Received:
    1
  18. gdereonsmith

    gdereonsmith Member

    Joined:
    Apr 19, 2018
    Messages:
    108
    Likes Received:
    1
  19. mirandabales

    mirandabales Active Member

    Joined:
    Sep 28, 2014
    Messages:
    286
    Likes Received:
    26
    thank you
     
  20. mcslimshady

    mcslimshady Well-Known Member

    Joined:
    Jun 20, 2016
    Messages:
    2,418
    Likes Received:
    89
    thanks man
     
  21. alterion

    alterion Well-Known Member

    Joined:
    May 7, 2016
    Messages:
    1,997
    Likes Received:
    44