Britney Spears - I’m A Slave 4 U 1080p

Discussion in 'Music Videos' started by hanshermann, Feb 27, 2018.

  1. hanshermann

    hanshermann Well-Known Member Uploader

    Joined:
    Aug 24, 2016
    Messages:
    7,241
    Likes Received:
    12,538
    [​IMG]
    Britney Spears - I’m A Slave 4 U 1080p

    Code:
    General
    Complete name               : Britney Spears - I’m A Slave 4 U.mov
    Format                      : MPEG-4
    Format profile              : Base Media
    Codec ID                    : isom (isom/avc1/iso6)
    File size                   : 128 MiB
    Duration                    : 3 min 24 s
    Overall bit rate mode       : Variable
    Overall bit rate            : 5 248 kb/s
    Encoded date                : UTC 2016-12-22 22:32:03
    Tagged date                 : UTC 2016-12-22 22:32:03
    
    Video
    ID                          : 1
    Format                      : AVC
    Format/Info                 : Advanced Video Codec
    Format profile              : High@L4.1
    Format settings, CABAC      : Yes
    Format settings, ReFrames   : 4 frames
    Codec ID                    : avc1
    Codec ID/Info               : Advanced Video Coding
    Duration                    : 3 min 24 s
    Bit rate                    : 5 087 kb/s
    Maximum bit rate            : 8 594 kb/s
    Width                       : 1 440 pixels
    Height                      : 1 080 pixels
    Display aspect ratio        : 4:3
    Frame rate mode             : Constant
    Frame rate                  : 23.976 (24000/1001) FPS
    Color space                 : YUV
    Chroma subsampling          : 4:2:0
    Bit depth                   : 8 bits
    Scan type                   : Progressive
    Bits/(Pixel*Frame)          : 0.136
    Stream size                 : 124 MiB (97%)
    Title                       : 264@GPAC0.5.2-DEV-rev248-g39d5978-master
    Writing library             : x264 core 146 r2538 121396c
    Encoding settings           : cabac=1 / ref=2 / deblock=1:0:0 / analyse=0x3:0x131 / me=umh / subme=6 / psy=1 / psy_rd=1.00:0.00 / mixed_ref=1 / me_range=16 / chroma_me=1 / trellis=1 / 8x8dct=1 / cqm=0 / deadzone=21,11 / fast_pskip=1 / chroma_qp_offset=-2 / threads=12 / lookahead_threads=2 / sliced_threads=0 / nr=0 / decimate=1 / interlaced=0 / bluray_compat=0 / constrained_intra=0 / bframes=3 / b_pyramid=2 / b_adapt=1 / b_bias=0 / direct=1 / weightb=1 / open_gop=0 / weightp=2 / keyint=250 / keyint_min=23 / scenecut=40 / intra_refresh=0 / rc_lookahead=40 / rc=crf / mbtree=1 / crf=21.0 / qcomp=0.60 / qpmin=0 / qpmax=69 / qpstep=4 / ip_ratio=1.40 / aq=1:1.00
    Encoded date                : UTC 2016-12-22 22:32:03
    Tagged date                 : UTC 2016-12-22 22:32:04
    
    Audio
    ID                          : 2
    Format                      : AAC
    Format/Info                 : Advanced Audio Codec
    Format profile              : LC
    Codec ID                    : 40
    Duration                    : 3 min 24 s
    Bit rate mode               : Variable
    Bit rate                    : 159 kb/s
    Maximum bit rate            : 174 kb/s
    Channel(s)                  : 2 channels
    Channel positions           : Front: L R
    Sampling rate               : 48.0 kHz
    Frame rate                  : 46.875 FPS (1024 spf)
    Compression mode            : Lossy
    Stream size                 : 3.89 MiB (3%)
    Encoded date                : UTC 2016-12-22 22:19:21
    Tagged date                 : UTC 2016-12-22 22:32:04
    
    Hidden Content:
    You must either reply or click 'Like' to see the hidden information contained here.
     
    Last edited: Apr 13, 2018
  2. Loading...


  3. saeed040404

    saeed040404 Member

    Joined:
    Sep 19, 2017
    Messages:
    369
    Likes Received:
    12
    thanks
     
  4. brian182

    brian182 Well-Known Member

    Joined:
    Oct 14, 2013
    Messages:
    2,149
    Likes Received:
    123
    thanks
     
  5. Prizm2016Vas

    Prizm2016Vas Member

    Joined:
    Jul 9, 2016
    Messages:
    560
    Likes Received:
    19
  6. quake2

    quake2 Well-Known Member

    Joined:
    Oct 11, 2014
    Messages:
    1,667
    Likes Received:
    145
    thanks
     
  7. alkaline80

    alkaline80 Member

    Joined:
    Jan 27, 2017
    Messages:
    91
    Likes Received:
    5
  8. allynat

    allynat Active Member

    Joined:
    Dec 25, 2017
    Messages:
    869
    Likes Received:
    31
    thanks
     
  9. toonbbv

    toonbbv Well-Known Member

    Joined:
    Dec 11, 2013
    Messages:
    2,276
    Likes Received:
    108
    thank you
     
  10. khan

    khan Well-Known Member

    Joined:
    May 11, 2014
    Messages:
    1,633
    Likes Received:
    112
    thanks
     
  11. Gliker4

    Gliker4 Ff

    Joined:
    Jan 13, 2017
    Messages:
    159
    Likes Received:
    5
    ппр неенгн гнгн нг нгнгшгшеншещв уе е
     
  12. MrCarlos5295

    MrCarlos5295 Member

    Joined:
    Mar 13, 2017
    Messages:
    263
    Likes Received:
    15
  13. dzenailyjohn

    dzenailyjohn Member

    Joined:
    Oct 21, 2015
    Messages:
    283
    Likes Received:
    18
  14. SAEED.SPEARS

    SAEED.SPEARS Member

    Joined:
    Dec 14, 2016
    Messages:
    176
    Likes Received:
    10
  15. alexjspears

    alexjspears Member

    Joined:
    Jun 8, 2016
    Messages:
    174
    Likes Received:
    9
  16. the_lanoz

    the_lanoz Member

    Joined:
    Jan 2, 2017
    Messages:
    150
    Likes Received:
    6
  17. gleissoncoelho

    gleissoncoelho Active Member

    Joined:
    Aug 29, 2016
    Messages:
    396
    Likes Received:
    112
    thanks!!!
     
  18. Yoekelm

    Yoekelm Member

    Joined:
    Apr 15, 2018
    Messages:
    36
    Likes Received:
    2
    Thanks
     
  19. useodeos

    useodeos New Member

    Joined:
    Jun 27, 2018
    Messages:
    13
    Likes Received:
    0
  20. TuanBui

    TuanBui Member

    Joined:
    Jun 3, 2016
    Messages:
    140
    Likes Received:
    3
    Thanks
     
  21. 3Tsuki

    3Tsuki Member

    Joined:
    Nov 4, 2018
    Messages:
    54
    Likes Received:
    0
    Great men