Britney Spears - Gimme More (Original Cut) HDTV 1080i DD 2.0 MPEG2

Discussion in 'EMV 1 HD' started by adam dark, Apr 23, 2015.

  1. Praveen867

    Praveen867 Member

    Joined:
    Nov 14, 2016
    Messages:
    482
    Likes Received:
    2
    hank you so much!
     
  2. tkfxhh17

    tkfxhh17 New Member

    Joined:
    Nov 4, 2016
    Messages:
    3
    Likes Received:
    1
    THANK YOU[​IMG]


    [​IMG]

    [​IMG]

    [​IMG]
    Code:
    General
    ID                             : 1 (0x1)
    Complete name                  : Britney Spears - Gimme More (Original Cut) HDTV 1080i DD 2.0 MPEG2.ts
    Format                         : MPEG-TS
    File size                      : 464 MiB
    Duration                       : 4mn 7s
    Overall bit rate mode          : Variable
    Overall bit rate               : 15.7 Mbps
    Maximum Overall bit rate       : 35.5 Mbps
    
    Video
    ID                             : 4113 (0x1011)
    Menu ID                        : 1 (0x1)
    Format                         : MPEG Video
    Format version                 : Version 2
    Format profile                 : [email protected]
    Format settings, BVOP          : Yes
    Format settings, Matrix        : Default
    Format settings, GOP           : M=3, N=15
    Format settings, picture struc : Frame
    Codec ID                       : 2
    Duration                       : 4mn 7s
    Bit rate mode                  : Variable
    Bit rate                       : 14.5 Mbps
    Maximum bit rate               : 18.5 Mbps
    Width                          : 1 920 pixels
    Height                         : 1 080 pixels
    Display aspect ratio           : 16:9
    Frame rate                     : 29.970 fps
    Standard                       : NTSC
    Color space                    : YUV
    Chroma subsampling             : 4:2:0
    Bit depth                      : 8 bits
    Scan type                      : Interlaced
    Scan order                     : Top Field First
    Compression mode               : Lossy
    Bits/(Pixel*Frame)             : 0.234
    Time code of first frame       : 00:00:00;00
    Time code source               : Group of pictures header
    GOP, Open/Closed               : Open
    Stream size                    : 428 MiB (92%)
    Language                       : English
    Color primaries                : BT.709
    Transfer characteristics       : BT.709
    Matrix coefficients            : BT.709
    GOP, Open/Closed of first fram : Closed
    
    Audio
    ID                             : 4352 (0x1100)
    Menu ID                        : 1 (0x1)
    Format                         : AC-3
    Format/Info                    : Audio Coding 3
    Mode extension                 : CM (complete main)
    Format settings, Endianness    : Big
    Codec ID                       : 129
    Duration                       : 4mn 7s
    Bit rate mode                  : Constant
    Bit rate                       : 448 Kbps
    Channel(s)                     : 2 channels
    Channel positions              : Front: L R
    Sampling rate                  : 48.0 KHz
    Bit depth                      : 16 bits
    Compression mode               : Lossy
    Stream size                    : 13.2 MiB (3%)
    Language                       : English
    ***Hidden content cannot be quoted.***

    Credit to the Original Capper
    [/QUOTE]
     
    just_eddy likes this.
  3. hanyusen1989

    hanyusen1989 Member

    Joined:
    Oct 1, 2016
    Messages:
    118
    Likes Received:
    5
    thank you
     
  4. applek

    applek New Member

    Joined:
    Dec 8, 2016
    Messages:
    1
    Likes Received:
    0
    tytyvm
     
  5. feelipe3

    feelipe3 New Member

    Joined:
    Nov 14, 2016
    Messages:
    16
    Likes Received:
    0
  6. Regis

    Regis Member

    Joined:
    Jul 14, 2015
    Messages:
    961
    Likes Received:
    23
    Obrigado
     
  7. jacemace

    jacemace New Member

    Joined:
    Dec 18, 2016
    Messages:
    19
    Likes Received:
    0
    thanks for posting
     
  8. just_eddy

    just_eddy New Member

    Joined:
    Tuesday
    Messages:
    8
    Likes Received:
    0
    thank u