Britney Spears - Gimme More (Original Cut) HDTV 1080i DD 2.0 MPEG2

Discussion in 'EMV 1 HD' started by adam dark, Apr 23, 2015.

  1. adam dark

    adam dark Well-Known Member

    Joined:
    Dec 5, 2013
    Messages:
    2,475
    Likes Received:
    3,823
    Britney Spears - Gimme More (Original Cut) HDTV 1080i DD 2.0 MPEG2

    [​IMG]

    [​IMG]

    [​IMG]

    [​IMG]
    Code:
    General
    ID                             : 1 (0x1)
    Complete name                  : Britney Spears - Gimme More (Original Cut) HDTV 1080i DD 2.0 MPEG2.ts
    Format                         : MPEG-TS
    File size                      : 464 MiB
    Duration                       : 4mn 7s
    Overall bit rate mode          : Variable
    Overall bit rate               : 15.7 Mbps
    Maximum Overall bit rate       : 35.5 Mbps
    
    Video
    ID                             : 4113 (0x1011)
    Menu ID                        : 1 (0x1)
    Format                         : MPEG Video
    Format version                 : Version 2
    Format profile                 : [email protected]
    Format settings, BVOP          : Yes
    Format settings, Matrix        : Default
    Format settings, GOP           : M=3, N=15
    Format settings, picture struc : Frame
    Codec ID                       : 2
    Duration                       : 4mn 7s
    Bit rate mode                  : Variable
    Bit rate                       : 14.5 Mbps
    Maximum bit rate               : 18.5 Mbps
    Width                          : 1 920 pixels
    Height                         : 1 080 pixels
    Display aspect ratio           : 16:9
    Frame rate                     : 29.970 fps
    Standard                       : NTSC
    Color space                    : YUV
    Chroma subsampling             : 4:2:0
    Bit depth                      : 8 bits
    Scan type                      : Interlaced
    Scan order                     : Top Field First
    Compression mode               : Lossy
    Bits/(Pixel*Frame)             : 0.234
    Time code of first frame       : 00:00:00;00
    Time code source               : Group of pictures header
    GOP, Open/Closed               : Open
    Stream size                    : 428 MiB (92%)
    Language                       : English
    Color primaries                : BT.709
    Transfer characteristics       : BT.709
    Matrix coefficients            : BT.709
    GOP, Open/Closed of first fram : Closed
    
    Audio
    ID                             : 4352 (0x1100)
    Menu ID                        : 1 (0x1)
    Format                         : AC-3
    Format/Info                    : Audio Coding 3
    Mode extension                 : CM (complete main)
    Format settings, Endianness    : Big
    Codec ID                       : 129
    Duration                       : 4mn 7s
    Bit rate mode                  : Constant
    Bit rate                       : 448 Kbps
    Channel(s)                     : 2 channels
    Channel positions              : Front: L R
    Sampling rate                  : 48.0 KHz
    Bit depth                      : 16 bits
    Compression mode               : Lossy
    Stream size                    : 13.2 MiB (3%)
    Language                       : English
    Hidden Content:
    You must either reply or click 'Like' to see the hidden information contained here.
    Credit to the Original Capper
     
    just_eddy, EdGomes, danjguy and 31 others like this.
  2. mike gunen

    mike gunen Member

    Joined:
    Nov 9, 2013
    Messages:
    678
    Likes Received:
    13
    thank you dude
     
  3. adam dark

    adam dark Well-Known Member

    Joined:
    Dec 5, 2013
    Messages:
    2,475
    Likes Received:
    3,823
    you're welcome! :)
     
  4. eduardom03

    eduardom03 Member

    Joined:
    Mar 3, 2015
    Messages:
    161
    Likes Received:
    5
    thank you so much!
     
  5. khan

    khan Active Member

    Joined:
    May 11, 2014
    Messages:
    979
    Likes Received:
    48
     
  6. MaggieS

    MaggieS Active Member

    Joined:
    Sep 19, 2014
    Messages:
    925
    Likes Received:
    34
    TNX U
     
  7. quake2

    quake2 Active Member

    Joined:
    Oct 11, 2014
    Messages:
    818
    Likes Received:
    31
    ok thx
     
  8. barnabas11

    barnabas11 Member

    Joined:
    Jul 4, 2014
    Messages:
    211
    Likes Received:
    7
    Thanks for the original cut.
     
  9. dreemo

    dreemo Member

    Joined:
    Mar 13, 2015
    Messages:
    76
    Likes Received:
    1
    nice. thanks a lot
     
  10. adam dark

    adam dark Well-Known Member

    Joined:
    Dec 5, 2013
    Messages:
    2,475
    Likes Received:
    3,823
    you're welcome guys! :)
     
  11. nightowl32

    nightowl32 Member

    Joined:
    Jun 7, 2014
    Messages:
    304
    Likes Received:
    15
    Thanks!!!
     
  12. guillaume

    guillaume Member

    Joined:
    Jan 4, 2014
    Messages:
    219
    Likes Received:
    21
    :)
     
  13. yanpj7

    yanpj7 Member

    Joined:
    Jan 4, 2015
    Messages:
    118
    Likes Received:
    4
    Thank you so much
     
  14. DaveK87

    DaveK87 Member

    Joined:
    Sep 21, 2014
    Messages:
    32
    Likes Received:
    2
    THX
     
  15. terisha

    terisha New Member

    Joined:
    Jan 1, 2015
    Messages:
    21
    Likes Received:
    0
    thanks for sharing
     
  16. amirdvb

    amirdvb Member

    Joined:
    Feb 1, 2015
    Messages:
    418
    Likes Received:
    9
    thanks for sharing
     
  17. ferduarteferrari

    ferduarteferrari Member

    Joined:
    Mar 10, 2015
    Messages:
    379
    Likes Received:
    7
  18. multimediafm

    multimediafm Well-Known Member Donor

    Joined:
    Mar 27, 2014
    Messages:
    8,305
    Likes Received:
    342
    Thanks :)
    Britney Spears - Gimme More (Original Cut) HDTV 1080i DD 2.0 MPEG2
     
  19. allisee

    allisee Member

    Joined:
    Feb 5, 2014
    Messages:
    169
    Likes Received:
    3
    thank you
     
  20. NicoleScherzy

    NicoleScherzy Well-Known Member

    Joined:
    May 14, 2015
    Messages:
    870
    Likes Received:
    353
    GIMME Morrrrrrre THNXXX