DVD Britney Spears - From The Bottom Of My Broken Heart (DVD VOB)

Discussion in 'SD' started by nitrocell, Oct 23, 2016.

  1. nitrocell

    nitrocell
    Administrator
    Staff Member AdMiN Capper

    Joined:
    Nov 18, 2013
    Messages:
    577
    Likes Received:
    3,409
    [​IMG]
    Code:
    General
    Complete name               : Britney Spears - FROM THE BOTTOM OF MY BROKEN HEART.vob
    Format                      : MPEG-PS
    File size                   : 188 MiB
    Duration                    : 4 min
    Overall bit rate mode       : Variable
    Overall bit rate            : 5 799 kb/s
    
    Video
    ID                          : 224 (0xE0)
    Format                      : MPEG Video
    Format version              : Version 2
    Format profile              : [email protected]
    Format settings, BVOP       : Yes
    Format settings, Matrix     : Custom
    Format settings, GOP        : M=3, N=15
    Format settings, picture st : Frame
    Duration                    : 4 min
    Bit rate mode               : Variable
    Bit rate                    : 5 492 kb/s
    Maximum bit rate            : 8 000 kb/s
    Width                       : 720 pixels
    Height                      : 480 pixels
    Display aspect ratio        : 4:3
    Frame rate                  : 29.970 (30000/1001) FPS
    Standard                    : NTSC
    Color space                 : YUV
    Chroma subsampling          : 4:2:0
    Bit depth                   : 8 bits
    Scan type                   : Interlaced
    Scan order                  : Bottom Field First
    Compression mode            : Lossy
    Bits/(Pixel*Frame)          : 0.530
    Time code of first frame    : 01:53:36;27
    Time code source            : Group of pictures header
    GOP, Open/Closed            : Open
    GOP, Open/Closed of first f : Closed
    Stream size                 : 178 MiB (95%)
    Color primaries             : BT.601 NTSC
    Transfer characteristics    : BT.601
    Matrix coefficients         : BT.601
    
    Audio
    ID                          : 189 (0xBD)-128 (0x80)
    Format                      : AC-3
    Format/Info                 : Audio Coding 3
    Mode extension              : ME (music and effects)
    Format settings, Endianness : Big
    Muxing mode                 : DVD-Video
    Duration                    : 4 min
    Bit rate mode               : Constant
    Bit rate                    : 192 kb/s
    Channel(s)                  : 2 channels
    Channel positions           : Front: L R
    Sampling rate               : 48.0 kHz
    Frame rate                  : 31.250 FPS (1536 spf)
    Compression mode            : Lossy
    Delay relative to video     : -176 ms
    Stream size                 : 6.22 MiB (3%)
    Hidden Content:
    You must either reply or click 'Like' to see the hidden information contained here.
     
  2. Loading...


  3. miguelon.1982

    miguelon.1982 Member

    Joined:
    Sep 21, 2016
    Messages:
    43
    Likes Received:
    1
  4. femmemonsters

    femmemonsters Member

    Joined:
    Oct 8, 2015
    Messages:
    302
    Likes Received:
    8
    thank you
     
  5. andreamonger

    andreamonger Active Member

    Joined:
    May 16, 2015
    Messages:
    964
    Likes Received:
    139
    thanks
     
  6. SAEED.SPEARS

    SAEED.SPEARS Member

    Joined:
    Dec 14, 2016
    Messages:
    85
    Likes Received:
    0