HDTV Britney Spears - For the Record (2008) HDTV-1080i

Discussion in 'Documentaries' started by NicoleScherzy, Oct 24, 2015.

  1. NicoleScherzy

    NicoleScherzy Well-Known Member

    Joined:
    May 14, 2015
    Messages:
    833
    Likes Received:
    287
    DVD5 version of this documentary
    [​IMG]
    General
    ID : 1 (0x1)
    Complete name : Britney Spears - For the Record HDTV 1080i.ts
    Format : MPEG-TS
    File size : 7.22 GiB
    Duration : 59mn 19s
    Overall bit rate mode : Variable
    Overall bit rate : 17.4 Mbps
    Maximum Overall bit rate : 35.5 Mbps

    Video
    ID : 4113 (0x1011)
    Menu ID : 1 (0x1)
    Format : MPEG Video
    Format version : Version 2
    Format profile : [email protected]
    Format settings, BVOP : Yes
    Format settings, Matrix : Custom
    Format settings, GOP : M=3, N=12
    Format settings, picture st : Frame
    Codec ID : 2
    Duration : 59mn 19s
    Bit rate mode : Variable
    Bit rate : 15.5 Mbps
    Maximum bit rate : 16.0 Mbps
    Width : 1 920 pixels
    Height : 1 080 pixels
    Display aspect ratio : 16:9
    Frame rate : 25.000 fps
    Color space : YUV
    Chroma subsampling : 4:2:0
    Bit depth : 8 bits
    Scan type : Interlaced
    Scan order : Bottom Field First
    Compression mode : Lossy
    Bits/(Pixel*Frame) : 0.300
    Time code of first frame : 00:00:00:00
    Time code source : Group of pictures header
    GOP, Open/Closed : Open
    GOP, Open/Closed of first f : Closed
    Stream size : 6.44 GiB (89%)

    Audio #1
    ID : 4352 (0x1100)
    Menu ID : 1 (0x1)
    Format : AC-3
    Format/Info : Audio Coding 3
    Mode extension : CM (complete main)
    Format settings, Endianness : Big
    Codec ID : 129
    Duration : 59mn 19s
    Bit rate mode : Constant
    Bit rate : 192 Kbps
    Channel(s) : 2 channels
    Channel positions : Front: L R
    Sampling rate : 48.0 KHz
    Compression mode : Lossy
    Stream size : 81.5 MiB (1%)
    Language : Russian

    Audio #2
    ID : 4353 (0x1101)
    Menu ID : 1 (0x1)
    Format : AC-3
    Format/Info : Audio Coding 3
    Mode extension : CM (complete main)
    Format settings, Endianness : Big
    Codec ID : 129
    Duration : 59mn 19s
    Bit rate mode : Constant
    Bit rate : 384 Kbps
    Channel(s) : 2 channels
    Channel positions : Front: L R
    Sampling rate : 48.0 KHz
    Compression mode : Lossy
    Stream size : 163 MiB (2%)
    Language : English

    Audio #3
    ID : 4354 (0x1102)
    Menu ID : 1 (0x1)
    Format : AC-3
    Format/Info : Audio Coding 3
    Mode extension : CM (complete main)
    Format settings, Endianness : Big
    Codec ID : 129
    Duration : 59mn 19s
    Bit rate mode : Constant
    Bit rate : 448 Kbps
    Channel(s) : 2 channels
    Channel positions : Front: L R
    Sampling rate : 48.0 KHz
    Compression mode : Lossy
    Stream size : 190 MiB (3%)
    Language : English

    Text
    ID : 4608 (0x1200)
    Menu ID : 1 (0x1)
    Format : PGS
    Codec ID : 144
    Delay relative to video : 1s 560ms
    Language : Russian
    Hidden Content:
    You must reply before you can see the hidden data contained here.
     
    Last edited: Oct 26, 2015
  2. Loading...


  3. Puchacz93

    Puchacz93 Well-Known Member

    Joined:
    Feb 4, 2015
    Messages:
    1,204
    Likes Received:
    637
    Thank you.
     
    NicoleScherzy likes this.
  4. FlacoChileno

    FlacoChileno Member

    Joined:
    Jan 26, 2015
    Messages:
    364
    Likes Received:
    7
    Thank you for this! :)
     
    NicoleScherzy likes this.
  5. SpyrosMonster

    SpyrosMonster Active Member

    Joined:
    Jan 27, 2014
    Messages:
    637
    Likes Received:
    95
    thank you! the dvdrip posted some time ago wasn't working.
     
    NicoleScherzy likes this.
  6. alex

    alex Well-Known Member

    Joined:
    Nov 21, 2013
    Messages:
    4,507
    Likes Received:
    332
    Thank you so much
     
    NicoleScherzy likes this.
  7. Ju55

    Ju55 Active Member

    Joined:
    Jul 10, 2015
    Messages:
    596
    Likes Received:
    102
    thank you
     
    NicoleScherzy likes this.
  8. Dave

    Dave Active Member

    Joined:
    Jun 2, 2015
    Messages:
    475
    Likes Received:
    249
    Thank you so much.
     
    NicoleScherzy likes this.
  9. Jawni

    Jawni Member

    Joined:
    Jan 24, 2014
    Messages:
    716
    Likes Received:
    16
    Thanks a lot! :love:
     
    NicoleScherzy likes this.
  10. NicoleScherzy

    NicoleScherzy Well-Known Member

    Joined:
    May 14, 2015
    Messages:
    833
    Likes Received:
    287
    You are most welcome :) link to part4 just added
     
  11. NicoleScherzy

    NicoleScherzy Well-Known Member

    Joined:
    May 14, 2015
    Messages:
    833
    Likes Received:
    287
  12. SpyrosMonster

    SpyrosMonster Active Member

    Joined:
    Jan 27, 2014
    Messages:
    637
    Likes Received:
    95
  13. nitrocell

    nitrocell
    Administrator
    Staff Member AdMiN Capper

    Joined:
    Nov 18, 2013
    Messages:
    579
    Likes Received:
    3,421
    I've tested the DVD5 now, downloaded it with Mipony and it extracted just fine with WinRAR

    Use a decent download manager like Mipony or jDownloader, if browser is giving you trouble, since Mega's encryption/decryption system can be kinda error prone in the browser, specially if you don't use their browser plugin
     
    SpyrosMonster and NicoleScherzy like this.
  14. SpyrosMonster

    SpyrosMonster Active Member

    Joined:
    Jan 27, 2014
    Messages:
    637
    Likes Received:
    95
    I used mega's downloader but since there's a 1080i version I'm okay with this one. Thanks! :D
     
    NicoleScherzy likes this.
  15. NicoleScherzy

    NicoleScherzy Well-Known Member

    Joined:
    May 14, 2015
    Messages:
    833
    Likes Received:
    287
    I should note that the HDTV version and the DVD version of this Britney documentary have slight differences in some scenes.
     
  16. NicoleScherzy

    NicoleScherzy Well-Known Member

    Joined:
    May 14, 2015
    Messages:
    833
    Likes Received:
    287

    Links updated!!! All of them :victory:
     
  17. Puchacz93

    Puchacz93 Well-Known Member

    Joined:
    Feb 4, 2015
    Messages:
    1,204
    Likes Received:
    637
    Thank you :).:love:
     
  18. femmemonsters

    femmemonsters Member

    Joined:
    Oct 8, 2015
    Messages:
    302
    Likes Received:
    8
    does this have 5.1 channels?
     
  19. mike gunen

    mike gunen Member

    Joined:
    Nov 9, 2013
    Messages:
    659
    Likes Received:
    11
    Thank you
     
  20. NicoleScherzy

    NicoleScherzy Well-Known Member

    Joined:
    May 14, 2015
    Messages:
    833
    Likes Received:
    287
    No! Only 2 channels: LR
    I posted the Media Info too
     
  21. SmartBeens

    SmartBeens Active Member

    Joined:
    Oct 5, 2014
    Messages:
    436
    Likes Received:
    25
    Thanks for this :)