Britney Spears - Everytime (Upscale) 1080p

Discussion in 'UPSCALED' started by hanshermann, Jan 12, 2018.

  1. hanshermann

    hanshermann Well-Known Member Uploader

    Joined:
    Aug 24, 2016
    Messages:
    6,325
    Likes Received:
    9,127
    [​IMG]

    Britney Spears - Everytime HD 1080p

    Code:
    General
    Complete name               : Britney Spears - Everytime HD 1080p.mov
    Format                      : MPEG-4
    Format profile              : QuickTime
    Codec ID                    : qt   0000.00 (qt  )
    File size                   : 1.20 GiB
    Duration                    : 4 min 8 s
    Overall bit rate mode       : Variable
    Overall bit rate            : 41.6 Mb/s
    Movie_More                  : Upscaled by Feisty2 From NTSC DVD Clean
    Description                 : Upscaled by Feisty2 From NTSC DVD Clean
    Encoded date                : UTC 2012-10-05 13:06:12
    Tagged date                 : UTC 2012-10-05 13:10:38
    Writing library             : Apple QuickTime 7.7.2
    com.apple.quicktime.player. : (Binary)
    
    Video
    ID                          : 1
    Format                      : AVC
    Format/Info                 : Advanced Video Codec
    Format profile              : High@L4.1
    Format settings, CABAC      : Yes
    Format settings, ReFrames   : 3 frames
    Codec ID                    : avc1
    Codec ID/Info               : Advanced Video Coding
    Duration                    : 4 min 8 s
    Bit rate mode               : Variable
    Bit rate                    : 40.0 Mb/s
    Width                       : 1 920 pixels
    Height                      : 1 080 pixels
    Display aspect ratio        : 16:9
    Frame rate mode             : Constant
    Frame rate                  : 23.976 (24000/1001) FPS
    Color space                 : YUV
    Chroma subsampling          : 4:2:0
    Bit depth                   : 8 bits
    Scan type                   : Progressive
    Bits/(Pixel*Frame)          : 0.805
    Stream size                 : 1.16 GiB (96%)
    Writing library             : RGB32 ProRes4444
    Language                    : English
    Encoded date                : UTC 2012-10-05 13:06:12
    Tagged date                 : UTC 2012-10-05 13:06:12
    Color range                 : Limited
    Color primaries             : BT.709
    Transfer characteristics    : BT.709
    Matrix coefficients         : BT.709
    
    Audio
    ID                          : 2
    Format                      : PCM
    Format settings, Endianness : Little
    Format settings, Sign       : Signed
    Codec ID                    : sowt
    Duration                    : 4 min 8 s
    Bit rate mode               : Constant
    Bit rate                    : 1 536 kb/s
    Channel(s)                  : 2 channels
    Channel positions           : Front: L R
    Sampling rate               : 48.0 kHz
    Bit depth                   : 16 bits
    Stream size                 : 45.6 MiB (4%)
    Language                    : English
    Encoded date                : UTC 2012-10-05 13:06:12
    Tagged date                 : UTC 2012-10-05 13:10:38
    
    Hidden Content:
    You must either reply or click 'Like' to see the hidden information contained here.
     
    Last edited: Apr 13, 2018
  2. Loading...


  3. multimediafm

    multimediafm Well-Known Member Donor

    Joined:
    Mar 27, 2014
    Messages:
    12,683
    Likes Received:
    985
  4. Dark Soul

    Dark Soul Member

    Joined:
    Sep 23, 2017
    Messages:
    372
    Likes Received:
    11
  5. lim

    lim Well-Known Member

    Joined:
    Nov 8, 2013
    Messages:
    2,026
    Likes Received:
    76
    thanks
     
  6. quake2

    quake2 Well-Known Member

    Joined:
    Oct 11, 2014
    Messages:
    1,539
    Likes Received:
    136
    thanks
     
  7. Sergiodegros

    Sergiodegros Active Member

    Joined:
    Mar 21, 2017
    Messages:
    664
    Likes Received:
    50
  8. Vinny

    Vinny Well-Known Member

    Joined:
    Dec 26, 2013
    Messages:
    3,844
    Likes Received:
    46
    Thanks! ;-D
     
  9. allynat

    allynat Member

    Joined:
    Dec 25, 2017
    Messages:
    664
    Likes Received:
    11
    đttngjpiaeb
     
  10. MrHronik

    MrHronik Member

    Joined:
    Feb 3, 2018
    Messages:
    154
    Likes Received:
    4
    thanks
     
  11. D3mon86

    D3mon86 Member

    Joined:
    Dec 19, 2016
    Messages:
    849
    Likes Received:
    13
    thanks
     
  12. brunolima284

    brunolima284 Member

    Joined:
    May 13, 2017
    Messages:
    351
    Likes Received:
    15
  13. ricards51

    ricards51 Member

    Joined:
    Oct 10, 2016
    Messages:
    617
    Likes Received:
    20
    very special
     
  14. Chr0n01265

    Chr0n01265 New Member

    Joined:
    Dec 27, 2016
    Messages:
    9
    Likes Received:
    0
  15. seregil

    seregil Active Member

    Joined:
    Sep 5, 2014
    Messages:
    325
    Likes Received:
    33
    thanks
     
  16. romeeek

    romeeek Member

    Joined:
    Jul 25, 2016
    Messages:
    187
    Likes Received:
    8
    thanks
     
  17. Alisson Andrade

    Alisson Andrade Member

    Joined:
    Jan 27, 2017
    Messages:
    380
    Likes Received:
    16
    thanks
     
  18. Albert90

    Albert90 Active Member

    Joined:
    May 27, 2017
    Messages:
    593
    Likes Received:
    40
    thanks
     
  19. JPGAmbrosino

    JPGAmbrosino Active Member

    Joined:
    Jul 30, 2016
    Messages:
    588
    Likes Received:
    26
    TXS A LOTTT
     
  20. Clepsodra

    Clepsodra Active Member

    Joined:
    Jan 15, 2017
    Messages:
    516
    Likes Received:
    90
    [​IMG]

    Britney Spears - Everytime HD 1080p

    Code:
    General
    Complete name : Britney Spears - Everytime HD 1080p.mov
    Format : MPEG-4
    Format profile : QuickTime
    Codec ID : qt 0000.00 (qt )
    File size : 1.20 GiB
    Duration : 4 min 8 s
    Overall bit rate mode : Variable
    Overall bit rate : 41.6 Mb/s
    Movie_More : Upscaled by Feisty2 From NTSC DVD Clean
    Description : Upscaled by Feisty2 From NTSC DVD Clean
    Encoded date : UTC 2012-10-05 13:06:12
    Tagged date : UTC 2012-10-05 13:10:38
    Writing library : Apple QuickTime 7.7.2
    com.apple.quicktime.player. : (Binary)

    Video
    ID : 1
    Format : AVC
    Format/Info : Advanced Video Codec
    Format profile : High@L4.1
    Format settings, CABAC : Yes
    Format settings, ReFrames : 3 frames
    Codec ID : avc1
    Codec ID/Info : Advanced Video Coding
    Duration : 4 min 8 s
    Bit rate mode : Variable
    Bit rate : 40.0 Mb/s
    Width : 1 920 pixels
    Height : 1 080 pixels
    Display aspect ratio : 16:9
    Frame rate mode : Constant
    Frame rate : 23.976 (24000/1001) FPS
    Color space : YUV
    Chroma subsampling : 4:2:0
    Bit depth : 8 bits
    Scan type : Progressive
    Bits/(Pixel*Frame) : 0.805
    Stream size : 1.16 GiB (96%)
    Writing library : RGB32 ProRes4444
    Language : English
    Encoded date : UTC 2012-10-05 13:06:12
    Tagged date : UTC 2012-10-05 13:06:12
    Color range : Limited
    Color primaries : BT.709
    Transfer characteristics : BT.709
    Matrix coefficients : BT.709

    Audio
    ID : 2
    Format : PCM
    Format settings, Endianness : Little
    Format settings, Sign : Signed
    Codec ID : sowt
    Duration : 4 min 8 s
    Bit rate mode : Constant
    Bit rate : 1 536 kb/s
    Channel(s) : 2 channels
    Channel positions : Front: L R
    Sampling rate : 48.0 kHz
    Bit depth : 16 bits
    Stream size : 45.6 MiB (4%)
    Language : English
    Encoded date : UTC 2012-10-05 13:06:12
    Tagged date : UTC 2012-10-05 13:10:38

    Hidden Content:
    You must either reply or click 'Like' to see the hidden information contained here.
     
  21. kowalski2016

    kowalski2016 Active Member

    Joined:
    May 18, 2016
    Messages:
    314
    Likes Received:
    36
    thank you!