Britney Spears - Born To Make You Happy (MTV BASE HD-1080i-DD2.0-Olgold)

Discussion in 'MTV BASE' started by DETOX, Jan 15, 2016.

  1. DETOX

    DETOX K-POP fan ♡ VIXX▾T-ARA▾17▾WANNA ONE▾BTS▾SHINee...♡ V . I . P. Uploader

    Joined:
    Feb 20, 2014
    Messages:
    3,579
    Likes Received:
    25,520
    [​IMG]
    Code:
    General
    ID                                       : 1070 (0x42E)
    Complete name                            : Britney Spears - Born To Make You Happy (MTV BASE HD-1080i-DD2.0-Olgold).ts
    Format                                   : MPEG-TS
    File size                                : 141 MiB
    Duration                                 : 3mn 37s
    Overall bit rate mode                    : Variable
    Overall bit rate                         : 5 444 Kbps
    
    Video
    ID                                       : 110 (0x6E)
    Menu ID                                  : 8001 (0x1F41)
    Format                                   : AVC
    Format/Info                              : Advanced Video Codec
    Format profile                           : [email protected]
    Format settings, CABAC                   : Yes
    Format settings, ReFrames                : 4 frames
    Format settings, GOP                     : M=8, N=24
    Codec ID                                 : 27
    Duration                                 : 3mn 37s
    Bit rate                                 : 4 981 Kbps
    Width                                    : 1 920 pixels
    Height                                   : 1 080 pixels
    Display aspect ratio                     : 16:9
    Frame rate                               : 25.000 fps
    Standard                                 : Component
    Color space                              : YUV
    Chroma subsampling                       : 4:2:0
    Bit depth                                : 8 bits
    Scan type                                : MBAFF
    Scan order                               : Top Field First
    Bits/(Pixel*Frame)                       : 0.096
    Stream size                              : 129 MiB (91%)
    Encryption                               : Seca Mediaguard 1/2
    Color range                              : Limited
    Color primaries                          : BT.709
    Transfer characteristics                 : BT.709
    Matrix coefficients                      : BT.709
    
    Audio
    ID                                       : 121 (0x79)
    Menu ID                                  : 8001 (0x1F41)
    Format                                   : AC-3
    Format/Info                              : Audio Coding 3
    Mode extension                           : CM (complete main)
    Format settings, Endianness              : Big
    Codec ID                                 : 6
    Duration                                 : 3mn 37s
    Bit rate mode                            : Constant
    Bit rate                                 : 192 Kbps
    Channel(s)                               : 2 channels
    Channel positions                        : Front: L R
    Sampling rate                            : 48.0 KHz
    Bit depth                                : 16 bits
    Compression mode                         : Lossy
    Delay relative to video                  : -24ms
    Stream size                              : 4.97 MiB (4%)
    Language                                 : French
    Encryption                               : Seca Mediaguard 1/2
    
    Menu
    ID                                       : 100 (0x64)
    Menu ID                                  : 8001 (0x1F41)
    Duration                                 : 3mn 37s
    List                                     : 110 (0x6E) (AVC) / 121 (0x79) (AC-3, French)
    Language                                 :  / French
    Server: cloud.mail.ru
    Hidden Content:
    You must reply before you can see the hidden data contained here.
     
    DiVenturas, rvden, eks22 and 5 others like this.
  2. Loading...


  3. adam dark

    adam dark Video Music Lover <3 V . I . P.

    Joined:
    Dec 5, 2013
    Messages:
    2,611
    Likes Received:
    4,868
  4. MaggieS

    MaggieS Well-Known Member

    Joined:
    Sep 19, 2014
    Messages:
    1,038
    Likes Received:
    50
  5. hungquocphan

    hungquocphan Active Member

    Joined:
    Nov 1, 2013
    Messages:
    602
    Likes Received:
    31
    thank you very much
     
  6. maurohachen

    maurohachen Active Member

    Joined:
    Feb 24, 2015
    Messages:
    453
    Likes Received:
    25
    thank you very much
     
  7. Luis Almeida

    Luis Almeida Active Member

    Joined:
    Feb 4, 2015
    Messages:
    405
    Likes Received:
    28
    thank you
     
  8. hapiny

    hapiny Member

    Joined:
    Nov 24, 2014
    Messages:
    550
    Likes Received:
    9
    thank you!
     
  9. rhea

    rhea Well-Known Member

    Joined:
    Jan 6, 2014
    Messages:
    6,831
    Likes Received:
    746
    thank you so much! :)
     
  10. Trop1cal

    Trop1cal Member

    Joined:
    Feb 5, 2015
    Messages:
    557
    Likes Received:
    12
    Thank you very much and what a Beauty.
     
  11. BinhTVT

    BinhTVT Member

    Joined:
    Jun 30, 2015
    Messages:
    182
    Likes Received:
    3
    thank you very much
     
  12. Ju55

    Ju55 Active Member

    Joined:
    Jul 10, 2015
    Messages:
    809
    Likes Received:
    142
    Thank you
     
  13. rober18

    rober18 Member

    Joined:
    Sep 29, 2015
    Messages:
    429
    Likes Received:
    25
    thank youu
     
  14. 江雨燃双鱼

    江雨燃双鱼 Active Member

    Joined:
    Apr 5, 2014
    Messages:
    613
    Likes Received:
    38
    thank you very much
     
  15. Dave

    Dave Well-Known Member

    Joined:
    Jun 2, 2015
    Messages:
    882
    Likes Received:
    376
    gracias :)
     
  16. umisea

    umisea Member

    Joined:
    Mar 14, 2014
    Messages:
    94
    Likes Received:
    2
    thanks a lot
     
  17. giddeon85

    giddeon85 Member

    Joined:
    Aug 5, 2016
    Messages:
    260
    Likes Received:
    9
    thanks!
     
  18. Attention

    Attention Active Member

    Joined:
    Nov 30, 2013
    Messages:
    563
    Likes Received:
    31
    thanks!
     
  19. tapions

    tapions Active Member

    Joined:
    Aug 30, 2016
    Messages:
    907
    Likes Received:
    75
    gracias
     
  20. 3veronicas

    3veronicas Well-Known Member

    Joined:
    Aug 26, 2016
    Messages:
    1,309
    Likes Received:
    61
    Thanks!
     
  21. GIOVANNYVALLE1802

    GIOVANNYVALLE1802 Member

    Joined:
    Aug 21, 2016
    Messages:
    233
    Likes Received:
    17