WEB-RiP Britney Spears - ...Baby One More Time (MTV VMA 1999) Digital HQ

Discussion in 'SD Live Performances' started by thankstome, Jan 13, 2019.

  1. thankstome

    thankstome Well-Known Member

    Joined:
    Feb 6, 2014
    Messages:
    1,103
    Likes Received:
    1,470
    [​IMG][​IMG][​IMG]
    Code:
    Format                      : MPEG-4
    Format profile              : Base Media
    Codec ID                    : isom (isom/iso2/avc1/mp41)
    File size                   : 27.1 MiB
    Duration                    : 2 min 17 s
    Overall bit rate            : 1 657 kb/s
    Movie name                  : 387455252026386
    Writing application         : Lavf57.71.100
    
    Video
    ID                          : 1
    Format                      : AVC
    Format/Info                 : Advanced Video Codec
    Format profile              : Main@L3
    Format settings             : CABAC / 5 Ref Frames
    Format settings, CABAC      : Yes
    Format settings, ReFrames   : 5 frames
    Codec ID                    : avc1
    Codec ID/Info               : Advanced Video Coding
    Duration                    : 2 min 16 s
    Bit rate                    : 1 588 kb/s
    Width                       : 640 pixels
    Height                      : 474 pixels
    Display aspect ratio        : 4:3
    Original display aspect rat : 4:3
    Frame rate mode             : Constant
    Frame rate                  : 29.970 (29970/1000) FPS
    Color space                 : YUV
    Chroma subsampling          : 4:2:0
    Bit depth                   : 8 bits
    Scan type                   : Progressive
    Bits/(Pixel*Frame)          : 0.175
    Stream size                 : 25.9 MiB (96%)
    Writing library             : x264 core 148
    Encoding settings           : cabac=1 / ref=5 / deblock=1:0:0 / analyse=0x1:0x131 / me=umh / subme=10 / psy=0 / mixed_ref=1 / me_range=24 / chroma_me=1 / trellis=2 / 8x8dct=0 / cqm=0 / deadzone=21,11 / fast_pskip=1 / chroma_qp_offset=0 / threads=15 / lookahead_threads=2 / sliced_threads=0 / nr=0 / decimate=1 / interlaced=0 / bluray_compat=0 / constrained_intra=0 / bframes=8 / b_pyramid=2 / b_adapt=2 / b_bias=0 / direct=3 / weightb=1 / open_gop=0 / weightp=2 / keyint=60 / keyint_min=31 / scenecut=0 / intra_refresh=0 / rc_lookahead=60 / rc=crf / mbtree=1 / crf=23.0 / qcomp=0.60 / qpmin=0 / qpmax=69 / qpstep=4 / vbv_maxrate=2150 / vbv_bufsize=4300 / crf_max=0.0 / nal_hrd=none / filler=0 / ip_ratio=1.40 / aq=2:1.00
    Language                    : English
    Color range                 : Limited
    Color primaries             : BT.601 NTSC
    Transfer characteristics    : BT.601
    Matrix coefficients         : BT.601
    Codec configuration box     : avcC
    
    Audio
    ID                          : 2
    Format                      : AAC LC SBR
    Format/Info                 : Advanced Audio Codec Low Complexity with Spectral Band Replication
    Commercial name             : HE-AAC
    Format settings             : NBC
    Codec ID                    : mp4a-40-5
    Duration                    : 2 min 17 s
    Bit rate mode               : Constant
    Bit rate                    : 64.0 kb/s
    Channel(s)                  : 2 channels
    Channel layout              : L R
    Sampling rate               : 48.0 kHz
    Frame rate                  : 23.438 FPS (2048 SPF)
    Compression mode            : Lossy
    Stream size                 : 1.05 MiB (4%)
    Language                    : English
    Default                     : Yes
    Alternate group             : 1
    
    Ripped by me
    Hidden Content:
    You must reply before you can see the hidden data contained here.
     
  2. Loading...


  3. ianarturis

    ianarturis Well-Known Member

    Joined:
    Jan 6, 2018
    Messages:
    1,355
    Likes Received:
    703
    thank you
     
  4. submariner9728

    submariner9728 Well-Known Member

    Joined:
    Dec 26, 2014
    Messages:
    1,312
    Likes Received:
    44
  5. P1956

    P1956 Active Member

    Joined:
    Aug 18, 2014
    Messages:
    754
    Likes Received:
    73
    thanks
     
  6. Albertography

    Albertography Active Member

    Joined:
    Sep 6, 2016
    Messages:
    256
    Likes Received:
    56
    Thanks
     
  7. SpyrosMonster

    SpyrosMonster Active Member

    Joined:
    Jan 27, 2014
    Messages:
    916
    Likes Received:
    217
    thanks
     
  8. bigquinn

    bigquinn Member

    Joined:
    Oct 25, 2018
    Messages:
    396
    Likes Received:
    10
    thanks
     
  9. LM_GAGA

    LM_GAGA Member

    Joined:
    Feb 15, 2018
    Messages:
    306
    Likes Received:
    21
    thanks
     
  10. Pris36

    Pris36 Member

    Joined:
    Jul 23, 2018
    Messages:
    403
    Likes Received:
    21
    wowwwwwwwwwwwwwwww
     
  11. Luis Almeida

    Luis Almeida Well-Known Member

    Joined:
    Feb 4, 2015
    Messages:
    1,543
    Likes Received:
    125
  12. jose2018

    jose2018 Well-Known Member

    Joined:
    Nov 26, 2016
    Messages:
    1,315
    Likes Received:
    61
    OBRIGADO
     
  13. Victor Costa

    Victor Costa Active Member

    Joined:
    Sep 1, 2016
    Messages:
    598
    Likes Received:
    45
  14. Sidney

    Sidney Active Member

    Joined:
    Feb 8, 2017
    Messages:
    345
    Likes Received:
    26
    thanks
     
  15. lloydminaj

    lloydminaj Nicki Minaj stan

    Joined:
    Jan 23, 2017
    Messages:
    476
    Likes Received:
    391
    Thank you
     
    Sidney likes this.
  16. zuluka

    zuluka Well-Known Member

    Joined:
    Jul 9, 2016
    Messages:
    1,269
    Likes Received:
    38
    thanks
     
  17. jerson9213

    jerson9213 Active Member

    Joined:
    Aug 30, 2016
    Messages:
    417
    Likes Received:
    26
    gracias!
     
  18. apl3

    apl3 Well-Known Member

    Joined:
    Jun 11, 2017
    Messages:
    1,500
    Likes Received:
    39
    thanks
     
  19. orionN

    orionN Well-Known Member

    Joined:
    Jan 26, 2018
    Messages:
    1,061
    Likes Received:
    56
    thankssss
     
  20. revilo18

    revilo18 Well-Known Member

    Joined:
    May 26, 2016
    Messages:
    2,576
    Likes Received:
    151
    thankkk
     
  21. bigproblem11

    bigproblem11 New Member

    Joined:
    Oct 20, 2017
    Messages:
    17
    Likes Received:
    3
    thank you