Britney Spears - Baby One More Time (MTV BASE HD-1080i-DD2.0-Olgold)

Discussion in 'MTV BASE' started by DETOX, Jan 15, 2016.

  1. DETOX

    DETOX Well-Known Member V . I . P. Uploader

    Joined:
    Feb 20, 2014
    Messages:
    2,721
    Likes Received:
    13,799
    [​IMG]
    Code:
    General
    ID                                       : 1070 (0x42E)
    Complete name                            : Britney Spears - Baby One More Time (MTV BASE HD-1080i-DD2.0-Olgold).ts
    Format                                   : MPEG-TS
    File size                                : 202 MiB
    Duration                                 : 3mn 55s
    Overall bit rate mode                    : Variable
    Overall bit rate                         : 7 112 Kbps
    
    Video
    ID                                       : 110 (0x6E)
    Menu ID                                  : 8001 (0x1F41)
    Format                                   : AVC
    Format/Info                              : Advanced Video Codec
    Format profile                           : High@L4
    Format settings, CABAC                   : Yes
    Format settings, ReFrames                : 4 frames
    Codec ID                                 : 27
    Duration                                 : 3mn 55s
    Bit rate                                 : 6 567 Kbps
    Width                                    : 1 920 pixels
    Height                                   : 1 080 pixels
    Display aspect ratio                     : 16:9
    Frame rate                               : 25.000 fps
    Standard                                 : Component
    Color space                              : YUV
    Chroma subsampling                       : 4:2:0
    Bit depth                                : 8 bits
    Scan type                                : MBAFF
    Scan order                               : Top Field First
    Bits/(Pixel*Frame)                       : 0.127
    Stream size                              : 184 MiB (91%)
    Encryption                               : Seca Mediaguard 1/2
    Color range                              : Limited
    Color primaries                          : BT.709
    Transfer characteristics                 : BT.709
    Matrix coefficients                      : BT.709
    
    Audio
    ID                                       : 121 (0x79)
    Menu ID                                  : 8001 (0x1F41)
    Format                                   : AC-3
    Format/Info                              : Audio Coding 3
    Mode extension                           : CM (complete main)
    Format settings, Endianness              : Big
    Codec ID                                 : 6
    Duration                                 : 3mn 56s
    Bit rate mode                            : Constant
    Bit rate                                 : 192 Kbps
    Channel(s)                               : 2 channels
    Channel positions                        : Front: L R
    Sampling rate                            : 48.0 KHz
    Bit depth                                : 16 bits
    Compression mode                         : Lossy
    Delay relative to video                  : -565ms
    Stream size                              : 5.40 MiB (3%)
    Language                                 : French
    Encryption                               : Seca Mediaguard 1/2
    
    Menu
    ID                                       : 100 (0x64)
    Menu ID                                  : 8001 (0x1F41)
    Duration                                 : 3mn 55s
    List                                     : 110 (0x6E) (AVC) / 121 (0x79) (AC-3, French)
    Language                                 :  / French
    Server: cloud.mail.ru
    Hidden Content:
    You must reply before you can see the hidden data contained here.
     
    pedrospear, Zeeh, styleh2 and 5 others like this.
  2. Loading...


  3. adam dark

    adam dark Well-Known Member

    Joined:
    Dec 5, 2013
    Messages:
    2,473
    Likes Received:
    3,807
  4. MaggieS

    MaggieS Active Member

    Joined:
    Sep 19, 2014
    Messages:
    925
    Likes Received:
    34
  5. hungquocphan

    hungquocphan Member

    Joined:
    Nov 1, 2013
    Messages:
    433
    Likes Received:
    9
    thank you
     
  6. Luis Almeida

    Luis Almeida Member

    Joined:
    Feb 4, 2015
    Messages:
    301
    Likes Received:
    7
    THANK YOU
     
  7. rhea

    rhea Well-Known Member

    Joined:
    Jan 6, 2014
    Messages:
    5,258
    Likes Received:
    253
    thank you so much! :)
     
  8. styleh2

    styleh2 Member

    Joined:
    Mar 22, 2015
    Messages:
    36
    Likes Received:
    1
    thanks you!
     
  9. disneyrussianmusic

    disneyrussianmusic Active Member

    Joined:
    Nov 9, 2015
    Messages:
    262
    Likes Received:
    132
  10. Ju55

    Ju55 Active Member

    Joined:
    Jul 10, 2015
    Messages:
    695
    Likes Received:
    110
    Thank you
     
  11. Zeeh

    Zeeh Member

    Joined:
    Mar 20, 2015
    Messages:
    327
    Likes Received:
    4
    Just seeing the quality
     
  12. 江雨燃双鱼

    江雨燃双鱼 Active Member

    Joined:
    Apr 5, 2014
    Messages:
    585
    Likes Received:
    34
    thank you so much! :)
     
  13. ramazanedvard

    ramazanedvard New Member

    Joined:
    Jan 14, 2016
    Messages:
    21
    Likes Received:
    0
  14. panchozua13

    panchozua13 Member

    Joined:
    Jun 25, 2016
    Messages:
    178
    Likes Received:
    4
  15. giddeon85

    giddeon85 Member

    Joined:
    Aug 5, 2016
    Messages:
    261
    Likes Received:
    9
    thanks!
     
  16. Attention

    Attention Active Member

    Joined:
    Nov 30, 2013
    Messages:
    564
    Likes Received:
    29
    thanks!
     
  17. JossGill

    JossGill Member

    Joined:
    May 3, 2016
    Messages:
    44
    Likes Received:
    3
    Gracias..!!! :)
     
  18. rscky

    rscky Member

    Joined:
    Aug 28, 2016
    Messages:
    46
    Likes Received:
    0
    thank you
     
  19. tapions

    tapions Active Member

    Joined:
    Aug 30, 2016
    Messages:
    758
    Likes Received:
    50
    gracias
     
  20. 3veronicas

    3veronicas Member

    Joined:
    Aug 26, 2016
    Messages:
    605
    Likes Received:
    14
    Thanks!
     
  21. Harry

    Harry Member

    Joined:
    Mar 4, 2014
    Messages:
    289
    Likes Received:
    3
    Thank you so much :) <3