Britney Spears - Baby One More Time | M6.Music-HDTV 1080i-DD2.0 | IboYLDz-HDMania

Discussion in 'M6 HD' started by By.YLDz, Jan 30, 2016.

  1. By.YLDz

    By.YLDz Hayley Williams Fan :) Capper

    Joined:
    Oct 7, 2013
    Messages:
    366
    Likes Received:
    4,342
    CappeD IboYLDz

    [​IMG] [​IMG] [​IMG] [​IMG] [​IMG] [​IMG] [​IMG] [​IMG] [​IMG] [​IMG] [​IMG]

    Video
    Format : MPEG-TS
    File size : 248 MiB
    Duration : 3mn 55s
    Overall bit rate mode : Variable
    Overall bit rate : 8 807 Kbps

    Video
    ID : 162 (0xA2)
    Menu ID : 1 (0x1)
    Format : AVC
    Format/Info : Advanced Video Codec
    Format profile : High@L4
    Format settings, CABAC : Yes
    Format settings, ReFrames : 4 frames
    Codec ID : 27
    Duration : 3mn 55s
    Bit rate : 8 113 Kbps
    Width : 1 920 pixels
    Height : 1 080 pixels
    Display aspect ratio : 16:9
    Frame rate : 25.000 fps
    Color space : YUV
    Chroma subsampling : 4:2:0
    Bit depth : 8 bits
    Scan type : MBAFF
    Scan type, store method : Interleaved fields
    Scan order : Top Field First
    Bits/(Pixel*Frame) : 0.156
    Stream size : 228 MiB (92%)
    Color range : Limited
    Color primaries : BT.709
    Transfer characteristics : BT.709
    Matrix coefficients : BT.709

    Audio
    ID : 90 (0x5A)
    Menu ID : 1 (0x1)
    Format : AC-3
    Format/Info : Audio Coding 3
    Format profile : Dolby Digital
    Mode extension : CM (complete main)
    Format settings, Endianness : Big
    Codec ID : 6
    Duration : 3mn 55s
    Bit rate mode : Constant
    Bit rate : 256 Kbps
    Channel(s) : 2 channels
    Channel positions : Front: L R
    Sampling rate : 48.0 KHz
    Frame rate : 31.250 fps (1536 spf)
    Compression mode : Lossy
    Delay relative to video : -200ms
    Stream size : 7.19 MiB (3%)
    Language : French


    Hidden Content:
    You must either reply or click 'Like' to see the hidden information contained here.
     
  2. Loading...


  3. MaggieS

    MaggieS Well-Known Member

    Joined:
    Sep 19, 2014
    Messages:
    1,059
    Likes Received:
    55
    [​IMG]
     
    By.YLDz likes this.
  4. By.YLDz

    By.YLDz Hayley Williams Fan :) Capper

    Joined:
    Oct 7, 2013
    Messages:
    366
    Likes Received:
    4,342
    You're Welcome :)
     
  5. MaggieS

    MaggieS Well-Known Member

    Joined:
    Sep 19, 2014
    Messages:
    1,059
    Likes Received:
    55
    Please more Britney:cry::mad::love:
     
  6. Emazing

    Emazing Member

    Joined:
    Nov 6, 2013
    Messages:
    48
    Likes Received:
    0
    Thankks for this old one.
     
  7. disneyrussianmusic

    disneyrussianmusic Well-Known Member

    Joined:
    Nov 9, 2015
    Messages:
    411
    Likes Received:
    271
  8. 777josem

    777josem ProRes 1080p LPCM

    Joined:
    Sep 1, 2014
    Messages:
    3,737
    Likes Received:
    3,278
    Thank you so much!
     
  9. DETOX

    DETOX I'm so sick of this fake love ♫ ❤️ V . I . P. Uploader

    Joined:
    Feb 20, 2014
    Messages:
    4,622
    Likes Received:
    38,511
    Yay! :happy:Thank you so much, friend!:love::love::love::love::love:
    BS4EVER, I loooooooooove my queen! :hearteyes:
    MV quality is great ^.^
     
  10. adam dark

    adam dark Video Music Lover <3 V . I . P.

    Joined:
    Dec 5, 2013
    Messages:
    2,632
    Likes Received:
    5,335
  11. Zeeh

    Zeeh Rallyforrivers.org

    Joined:
    Mar 20, 2015
    Messages:
    754
    Likes Received:
    30
    Thanks you
     
  12. rhea

    rhea Well-Known Member

    Joined:
    Jan 6, 2014
    Messages:
    7,673
    Likes Received:
    965
    thank you so much! :)
     
  13. marlyvasconceles

    marlyvasconceles Member

    Joined:
    Sep 7, 2014
    Messages:
    241
    Likes Received:
    2
  14. 江雨燃双鱼

    江雨燃双鱼 Active Member

    Joined:
    Apr 5, 2014
    Messages:
    614
    Likes Received:
    45
    thank you so much! :)
     
  15. faz

    faz Member

    Joined:
    Jan 9, 2014
    Messages:
    331
    Likes Received:
    8
    thank you
     
  16. SuckerBaby

    SuckerBaby Member

    Joined:
    Mar 4, 2016
    Messages:
    78
    Likes Received:
    7
    Gracias"By.YLDz, post: 233528, member: 19"]
    CappeD IboYLDz

    [​IMG] [​IMG] [​IMG] [​IMG] [​IMG] [​IMG] [​IMG] [​IMG] [​IMG] [​IMG] [​IMG]

    Video
    Format : MPEG-TS
    File size : 248 MiB
    Duration : 3mn 55s
    Overall bit rate mode : Variable
    Overall bit rate : 8 807 Kbps

    Video
    ID : 162 (0xA2)
    Menu ID : 1 (0x1)
    Format : AVC
    Format/Info : Advanced Video Codec
    Format profile : High@L4
    Format settings, CABAC : Yes
    Format settings, ReFrames : 4 frames
    Codec ID : 27
    Duration : 3mn 55s
    Bit rate : 8 113 Kbps
    Width : 1 920 pixels
    Height : 1 080 pixels
    Display aspect ratio : 16:9
    Frame rate : 25.000 fps
    Color space : YUV
    Chroma subsampling : 4:2:0
    Bit depth : 8 bits
    Scan type : MBAFF
    Scan type, store method : Interleaved fields
    Scan order : Top Field First
    Bits/(Pixel*Frame) : 0.156
    Stream size : 228 MiB (92%)
    Color range : Limited
    Color primaries : BT.709
    Transfer characteristics : BT.709
    Matrix coefficients : BT.709

    Audio
    ID : 90 (0x5A)
    Menu ID : 1 (0x1)
    Format : AC-3
    Format/Info : Audio Coding 3
    Format profile : Dolby Digital
    Mode extension : CM (complete main)
    Format settings, Endianness : Big
    Codec ID : 6
    Duration : 3mn 55s
    Bit rate mode : Constant
    Bit rate : 256 Kbps
    Channel(s) : 2 channels
    Channel positions : Front: L R
    Sampling rate : 48.0 KHz
    Frame rate : 31.250 fps (1536 spf)
    Compression mode : Lossy
    Delay relative to video : -200ms
    Stream size : 7.19 MiB (3%)
    Language : French


    ***Hidden content cannot be quoted.***
    [/QUOTE]
    Gracias
    Graciqs
     
  17. Pavulon

    Pavulon Well-Known Member Donor

    Joined:
    Mar 22, 2016
    Messages:
    4,453
    Likes Received:
    861
    thanks
     
  18. Luis Almeida

    Luis Almeida Active Member

    Joined:
    Feb 4, 2015
    Messages:
    849
    Likes Received:
    51
    thank you
     
  19. jimijims

    jimijims Member

    Joined:
    Jul 13, 2016
    Messages:
    347
    Likes Received:
    15
  20. Praveen867

    Praveen867 Member

    Joined:
    Nov 14, 2016
    Messages:
    611
    Likes Received:
    19
    hank you so much!
     
  21. henrikhoe

    henrikhoe New Member

    Joined:
    Dec 3, 2016
    Messages:
    28
    Likes Received:
    0
    awesome