Britney Spears - Baby One More Time | M6.Music-HDTV 1080i-DD2.0 | IboYLDz-HDMania

Discussion in 'M6 HD' started by By.YLDz, Jan 30, 2016.

  1. By.YLDz

    By.YLDz Hayley Williams Fan :) Capper

    Joined:
    Oct 7, 2013
    Messages:
    358
    Likes Received:
    3,440
    CappeD IboYLDz

    [​IMG] [​IMG] [​IMG] [​IMG] [​IMG] [​IMG] [​IMG] [​IMG] [​IMG] [​IMG] [​IMG]

    Video
    Format : MPEG-TS
    File size : 248 MiB
    Duration : 3mn 55s
    Overall bit rate mode : Variable
    Overall bit rate : 8 807 Kbps

    Video
    ID : 162 (0xA2)
    Menu ID : 1 (0x1)
    Format : AVC
    Format/Info : Advanced Video Codec
    Format profile : [email protected]
    Format settings, CABAC : Yes
    Format settings, ReFrames : 4 frames
    Codec ID : 27
    Duration : 3mn 55s
    Bit rate : 8 113 Kbps
    Width : 1 920 pixels
    Height : 1 080 pixels
    Display aspect ratio : 16:9
    Frame rate : 25.000 fps
    Color space : YUV
    Chroma subsampling : 4:2:0
    Bit depth : 8 bits
    Scan type : MBAFF
    Scan type, store method : Interleaved fields
    Scan order : Top Field First
    Bits/(Pixel*Frame) : 0.156
    Stream size : 228 MiB (92%)
    Color range : Limited
    Color primaries : BT.709
    Transfer characteristics : BT.709
    Matrix coefficients : BT.709

    Audio
    ID : 90 (0x5A)
    Menu ID : 1 (0x1)
    Format : AC-3
    Format/Info : Audio Coding 3
    Format profile : Dolby Digital
    Mode extension : CM (complete main)
    Format settings, Endianness : Big
    Codec ID : 6
    Duration : 3mn 55s
    Bit rate mode : Constant
    Bit rate : 256 Kbps
    Channel(s) : 2 channels
    Channel positions : Front: L R
    Sampling rate : 48.0 KHz
    Frame rate : 31.250 fps (1536 spf)
    Compression mode : Lossy
    Delay relative to video : -200ms
    Stream size : 7.19 MiB (3%)
    Language : French


    Hidden Content:
    You must either reply or click 'Like' to see the hidden information contained here.
     
    hanshermann, anunnaki, Carla and 15 others like this.
  2. Loading...


  3. MaggieS

    MaggieS Active Member

    Joined:
    Sep 19, 2014
    Messages:
    922
    Likes Received:
    33
    [​IMG]
     
    By.YLDz likes this.
  4. By.YLDz

    By.YLDz Hayley Williams Fan :) Capper

    Joined:
    Oct 7, 2013
    Messages:
    358
    Likes Received:
    3,440
    You're Welcome :)
     
  5. MaggieS

    MaggieS Active Member

    Joined:
    Sep 19, 2014
    Messages:
    922
    Likes Received:
    33
    Please more Britney:cry::mad::love:
     
  6. Emazing

    Emazing Member

    Joined:
    Nov 6, 2013
    Messages:
    48
    Likes Received:
    0
    Thankks for this old one.
     
  7. disneyrussianmusic

    disneyrussianmusic Active Member

    Joined:
    Nov 9, 2015
    Messages:
    246
    Likes Received:
    122
  8. 777josem

    777josem Well-Known Member Uploader

    Joined:
    Sep 1, 2014
    Messages:
    2,346
    Likes Received:
    1,253
    Thank you so much!
     
  9. DETOX

    DETOX Well-Known Member V . I . P. Uploader

    Joined:
    Feb 20, 2014
    Messages:
    2,604
    Likes Received:
    12,261
    Yay! :happy:Thank you so much, friend!:love::love::love::love::love:
    BS4EVER, I loooooooooove my queen! :hearteyes:
    MV quality is great ^.^
     
  10. adam dark

    adam dark Well-Known Member

    Joined:
    Dec 5, 2013
    Messages:
    2,369
    Likes Received:
    3,612
  11. Zeeh

    Zeeh Member

    Joined:
    Mar 20, 2015
    Messages:
    327
    Likes Received:
    4
    Thanks you
     
  12. rhea

    rhea Well-Known Member

    Joined:
    Jan 6, 2014
    Messages:
    5,193
    Likes Received:
    250
    thank you so much! :)
     
  13. marlyvasconceles

    marlyvasconceles Member

    Joined:
    Sep 7, 2014
    Messages:
    243
    Likes Received:
    2
  14. 江雨燃双鱼

    江雨燃双鱼 Active Member

    Joined:
    Apr 5, 2014
    Messages:
    585
    Likes Received:
    34
    thank you so much! :)
     
  15. faz

    faz Member

    Joined:
    Jan 9, 2014
    Messages:
    196
    Likes Received:
    1
    thank you
     
  16. SuckerBaby

    SuckerBaby Member

    Joined:
    Mar 4, 2016
    Messages:
    59
    Likes Received:
    4
    Gracias"By.YLDz, post: 233528, member: 19"]
    CappeD IboYLDz

    [​IMG] [​IMG] [​IMG] [​IMG] [​IMG] [​IMG] [​IMG] [​IMG] [​IMG] [​IMG] [​IMG]

    Video
    Format : MPEG-TS
    File size : 248 MiB
    Duration : 3mn 55s
    Overall bit rate mode : Variable
    Overall bit rate : 8 807 Kbps

    Video
    ID : 162 (0xA2)
    Menu ID : 1 (0x1)
    Format : AVC
    Format/Info : Advanced Video Codec
    Format profile : [email protected]
    Format settings, CABAC : Yes
    Format settings, ReFrames : 4 frames
    Codec ID : 27
    Duration : 3mn 55s
    Bit rate : 8 113 Kbps
    Width : 1 920 pixels
    Height : 1 080 pixels
    Display aspect ratio : 16:9
    Frame rate : 25.000 fps
    Color space : YUV
    Chroma subsampling : 4:2:0
    Bit depth : 8 bits
    Scan type : MBAFF
    Scan type, store method : Interleaved fields
    Scan order : Top Field First
    Bits/(Pixel*Frame) : 0.156
    Stream size : 228 MiB (92%)
    Color range : Limited
    Color primaries : BT.709
    Transfer characteristics : BT.709
    Matrix coefficients : BT.709

    Audio
    ID : 90 (0x5A)
    Menu ID : 1 (0x1)
    Format : AC-3
    Format/Info : Audio Coding 3
    Format profile : Dolby Digital
    Mode extension : CM (complete main)
    Format settings, Endianness : Big
    Codec ID : 6
    Duration : 3mn 55s
    Bit rate mode : Constant
    Bit rate : 256 Kbps
    Channel(s) : 2 channels
    Channel positions : Front: L R
    Sampling rate : 48.0 KHz
    Frame rate : 31.250 fps (1536 spf)
    Compression mode : Lossy
    Delay relative to video : -200ms
    Stream size : 7.19 MiB (3%)
    Language : French


    ***Hidden content cannot be quoted.***
    [/QUOTE]
    Gracias
    Graciqs
     
  17. Pavulon

    Pavulon Member

    Joined:
    Mar 22, 2016
    Messages:
    925
    Likes Received:
    10
    thanks
     
  18. Luis Almeida

    Luis Almeida Member

    Joined:
    Feb 4, 2015
    Messages:
    295
    Likes Received:
    7
    thank you
     
  19. jimijims

    jimijims Member

    Joined:
    Jul 13, 2016
    Messages:
    175
    Likes Received:
    4
  20. Praveen867

    Praveen867 Member

    Joined:
    Nov 14, 2016
    Messages:
    482
    Likes Received:
    2
    hank you so much!
     
  21. henrikhoe

    henrikhoe New Member

    Joined:
    Dec 3, 2016
    Messages:
    26
    Likes Received:
    0
    awesome