Britney Spears - Baby One More Time 1080p 60fps [RE-UP]

Discussion in 'Music Videos' started by hanshermann, Mar 1, 2018.

  1. hanshermann

    hanshermann Well-Known Member Uploader

    Joined:
    Aug 24, 2016
    Messages:
    7,581
    Likes Received:
    14,499
    [​IMG]
    Britney Spears - Baby One More Time 1080p 60fps

    Code:
    General
    Unique ID                   : 197602193788426470224199360245641451486 (0x94A8CC577314B01CA99DC4E5CB0B17DE)
    Complete name               : Britney Spears - Baby One More Time (2009) Full HD 1080p_60 fps.mkv
    Format                      : Matroska
    Format version              : Version 4 / Version 2
    File size                   : 463 MiB
    Duration                    : 3 min 57 s
    Overall bit rate mode       : Variable
    Overall bit rate            : 16.3 Mb/s
    Movie name                  : Britney Spears - ...Baby One More Time (2009) Full HD 1080p | 60 fps
    Encoded date                : UTC 2016-10-23 11:34:52
    Writing application         : mkvmerge v7.6.0 ('Garden of Dreams') 32bit built on Feb  8 2015 12:51:39
    Writing library             : libebml v1.3.1 + libmatroska v1.4.2
    Cover                       : Yes
    Attachments                 : Cover.png
    
    Video
    ID                          : 1
    Format                      : AVC
    Format/Info                 : Advanced Video Codec
    Format profile              : High@L4.2
    Format settings, CABAC      : Yes
    Format settings, ReFrames   : 3 frames
    Codec ID                    : V_MPEG4/ISO/AVC
    Duration                    : 3 min 57 s
    Bit rate mode               : Variable
    Bit rate                    : 15.0 Mb/s
    Width                       : 1 412 pixels
    Height                      : 1 080 pixels
    Display aspect ratio        : 4:3
    Frame rate mode             : Constant
    Frame rate                  : 59.940 (60000/1001) FPS
    Standard                    : PAL
    Color space                 : YUV
    Chroma subsampling          : 4:2:0
    Bit depth                   : 8 bits
    Scan type                   : Progressive
    Bits/(Pixel*Frame)          : 0.164
    Stream size                 : 422 MiB (91%)
    Title                       : www.60-fps.org
    Language                    : English
    Default                     : Yes
    Forced                      : No
    Color range                 : Limited
    Color primaries             : BT.709
    Transfer characteristics    : BT.709
    Matrix coefficients         : BT.709
    
    Audio
    ID                          : 2
    Format                      : DTS
    Format/Info                 : Digital Theater Systems
    Mode                        : 16
    Format settings, Endianness : Big
    Codec ID                    : A_DTS
    Duration                    : 3 min 57 s
    Bit rate mode               : Constant
    Bit rate                    : 1 413 kb/s
    Channel(s)                  : 2 channels
    Channel positions           : Front: L R
    Sampling rate               : 48.0 kHz
    Frame rate                  : 93.750 FPS (512 spf)
    Bit depth                   : 16 bits
    Compression mode            : Lossy
    Delay relative to video     : 83 ms
    Stream size                 : 40.0 MiB (9%)
    Language                    : English
    Default                     : Yes
    Forced                      : No
    
    
    Hidden Content:
    You must either reply or click 'Like' to see the hidden information contained here.
    Original Thread by @marco25
     
    Last edited: Apr 13, 2018
  2. Loading...


  3. johan1993234556

    johan1993234556 Member

    Joined:
    Jul 18, 2017
    Messages:
    283
    Likes Received:
    4
  4. Swiftyjoezen

    Swiftyjoezen Member

    Joined:
    Feb 6, 2018
    Messages:
    51
    Likes Received:
    7
  5. quake2

    quake2 Well-Known Member

    Joined:
    Oct 11, 2014
    Messages:
    1,793
    Likes Received:
    146
    thanks
     
  6. siralex

    siralex Member

    Joined:
    Jun 12, 2016
    Messages:
    443
    Likes Received:
    21
    thanks
     
  7. tilon

    tilon Member

    Joined:
    Oct 2, 2016
    Messages:
    271
    Likes Received:
    12
    thansk
     
  8. RGO(

    RGO( rodriggam

    Joined:
    Jun 2, 2017
    Messages:
    276
    Likes Received:
    11
    thanks!! :hearteyes::astonished:
     
  9. Bruno77

    Bruno77 Well-Known Member

    Joined:
    Sep 12, 2016
    Messages:
    2,151
    Likes Received:
    50
    Thanks
     
  10. Bruno77

    Bruno77 Well-Known Member

    Joined:
    Sep 12, 2016
    Messages:
    2,151
    Likes Received:
    50
    Thanks
     
  11. Bruno77

    Bruno77 Well-Known Member

    Joined:
    Sep 12, 2016
    Messages:
    2,151
    Likes Received:
    50
    Thanks
     
  12. ryzhel007

    ryzhel007 Member

    Joined:
    Oct 22, 2016
    Messages:
    398
    Likes Received:
    8
    Thanksss
     
  13. allynat

    allynat Active Member

    Joined:
    Dec 25, 2017
    Messages:
    949
    Likes Received:
    34
    thanks
     
  14. ruslanonline

    ruslanonline britneyspearsmedia.ru

    Joined:
    May 6, 2017
    Messages:
    395
    Likes Received:
    558
    Thank you!
     
  15. toonbbv

    toonbbv Well-Known Member

    Joined:
    Dec 11, 2013
    Messages:
    2,289
    Likes Received:
    108
    thank you
     
  16. FelipeFada

    FelipeFada Member

    Joined:
    Mar 9, 2018
    Messages:
    60
    Likes Received:
    4
    Gracias <3
     
  17. mat2103

    mat2103 Active Member

    Joined:
    Dec 6, 2016
    Messages:
    769
    Likes Received:
    31
    Thank you
     
  18. miguelon.1982

    miguelon.1982 Member

    Joined:
    Sep 21, 2016
    Messages:
    155
    Likes Received:
    8
  19. carlos024333

    carlos024333 Active Member

    Joined:
    Mar 28, 2016
    Messages:
    807
    Likes Received:
    33
  20. johnrees321

    johnrees321 New Member

    Joined:
    Mar 17, 2018
    Messages:
    10
    Likes Received:
    0
    THMNAKS MAN
     
  21. just looking

    just looking Member

    Joined:
    Mar 21, 2018
    Messages:
    241
    Likes Received:
    6